Vsetko zadarmo

Vsetko zadarmo
 
DomovFAQHľadaťRegistráciaZoznam užívateľovUžívateľské skupinyPrihlásenie

Share | 
 

 Interstellar (2014)

Zobraziť predchádzajúcu tému Zobraziť nasledujúcu tému Goto down 
AutorSpráva
crank30



Počet príspevkov : 3
Registration date : 11.03.2015

OdoslaťPredmet: Interstellar (2014)   Št marec 19, 2015 1:29 am

Interstellar (2014)




kód:
http://www.csfd.cz/film/227786-interstellar/


Jazyk: CZ
Sci-Fi / Dobrodružný / Mysteriózní

USA / Velká Británie, 2014, 169 min
Režie:
Christopher Nolan
Scénář:
Jonathan Nolan, Christopher Nolan
Kamera:
Hoyte Van Hoytema
Hudba:
Hans Zimmer
Hrají:
Matthew McConaughey, Anne Hathaway, Jessica Chastain, Matt Damon, Mackenzie Foy, Wes Bentley, David Gyasi, Michael Caine, Casey Affleck, John Lithgow, Ellen Burstyn, Elyes Gabel, Topher Grace, Leah Cairns, David Oyelowo, Bill Irwin, William Devane, Liam Dickinson, Timothée Chalamet, Collette Wolfe, Francis X. McCarthy, Jeff Hephner


kód:
Format                                  : AVI
Format/Info                              : Audio Video Interleave
File size                                : 1.34 GiB
Duration                                : 2h 49mn
Overall bit rate                        : 1 137 Kbps

Video

Format                                  : MPEG-4 Visual
Format profile                          : Advanced Simple@L5
Duration                                : 2h 49mn
Bit rate                                : 1 000 Kbps
Width                                    : 640 pixels
Height                                  : 352 pixels
Display aspect ratio                    : 16:9
Frame rate                              : 23.976 fps
Color space                              : YUV
Chroma subsampling                      : 4:2:0
Bit depth                                : 8 bits
Scan type                                : Progressive
Compression mode                        : Lossy
Bits/(Pixel*Frame)                      : 0.185
Stream size                              : 1.18 GiB (88%)
Writing library                          : XviD 1.2.1 (UTC 2008-12-04)

Audio

Format                                  : MPEG Audio
Codec ID                                : 55
Codec ID/Hint                            : MP3
Duration                                : 2h 49mn
Bit rate mode                            : Constant
Bit rate                                : 128 Kbps
Channel(s)                              : 2 channels
Sampling rate                            : 44.1 KHz
Stream size                              : 155 MiB (11%)


kód:
http://euroshare.eu/file/XB0xXU9B88/inst.rar

kód:
http://download.hellshare.sk/inst-rar/30695853/

kód:
http://www.fastshare.cz/4325552/inst.rar#.VQgQw-H1NAw
Návrat hore Goto down
Zobrazit informácie o autorovi
 
Interstellar (2014)
Zobraziť predchádzajúcu tému Zobraziť nasledujúcu tému Návrat hore 
Strana 1 z 1

Povolenie tohoto fóra:Nemôžete odpovedať na témy v tomto fóre.
Vsetko zadarmo :: .::Download filmy::. :: .::Filmy s ceskym a slovenskym dabingom::.-
Prejdi na: