Vsetko zadarmo

Vsetko zadarmo
 
DomovFAQHľadaťRegistráciaZoznam užívateľovUžívateľské skupinyPrihlásenie

Share | 
 

 Hobit: Bitva pěti armád / The Hobbit (2014)

Zobraziť predchádzajúcu tému Zobraziť nasledujúcu tému Goto down 
AutorSpráva
crank30



Počet príspevkov : 3
Registration date : 11.03.2015

OdoslaťPredmet: Hobit: Bitva pěti armád / The Hobbit (2014)   Št marec 19, 2015 1:28 am

Hobit: Bitva pěti armád / The Hobbit (2014)




kód:
http://www.csfd.cz/film/322679-hobit-bitva-peti-armad/videa/


Jazyk: CZ
Dobrodružný / Fantasy

USA / Nový Zéland, 2014, 144 min
Režie:
Peter Jackson
Předloha:
John Ronald Reuel Tolkien (kniha)
Scénář:
Fran Walsh, Philippa Boyens, Peter Jackson, Guillerm… (více)
Kamera:
Andrew Lesnie
Hudba:
Howard Shore
Hrají:
Martin Freeman, Ian McKellen, Richard Armitage, Luke Evans, Evangeline Lilly, Orlando Bloom, Hugo Weaving, Cate Blanchett, Christopher Lee, Benedict Cumberbatch, Lee Pace, Manu Bennett, Billy Connolly, Aidan Turner, Ian Holm, Mikael Persbrandt, James Nesbitt, Bret McKenzie, Graham McTavish, Stephen Fry, Sylvester McCoy, Dean O'Gorman, Ken Stott, William Kircher, Jed Brophy, Mark Hadlow, Adam Brown, John Callen, Peter Hambleton, Stephen Hunter, John Bell, Ryan Gage, Lawrence Makoare
Obsah
zobrazit všechny obsahy

„Hobit: Bitva pěti armád" uzavírá epické dobrodružství Bilbo Pytlíka, Thorina Pavézy a skupiny trpaslíků. Když se jim v boji proti draku Šmakovi podařilo dobýt zpět svou vlast, nechtěně vypustili do světa smrtící sílu. Rozzuřený Šmak dští svůj spalující hněv na bezbranné muže, ženy a děti v Jezerním městě. Thorinova posedlost hromaděním znovu nabytého pokladu, kterému i přes Bilbovu snahu obětuje přátelství i čest, dožene Hobita k zoufalému a nebezpečnému rozhodnutí. Ale ještě větší nebezpečí je čeká. Sauron, o jehož krocích nikdo kromě čaroděje Gandalfa nic netuší, tajně vyslal obrovskou armádu Skřetů, aby zaútočila na Osamělou horu. S tím, jak se stahují mračna stupňujícího se konfliktu, jsou Trpaslíci, Elfové a Lidé postaveni před volbu, zda se sjednotí či budou zničeni. Budoucnost Středozemě visí na vlásku a v epické bitvě pěti armád bojuje Bilbo o život svůj i svých přátel.


kód:
Format                                   : AVI
File size                                : 2.43 GiB
Duration                                 : 2h 24mn
Overall bit rate                         : 2 404 Kbps

Video
Format                                   : MPEG-4 Visual
Codec ID                                 : XVID
Codec ID/Hint                            : XviD
Duration                                 : 2h 24mn
Bit rate                                 : 2 200 Kbps
Width                                    : 720 pixels
Height                                   : 304 pixels
Display aspect ratio                     : 2.35:1
Frame rate                               : 23.976 fps
Stream size                              : 2.22 GiB (92%)

Audio
ID                                       : 1
Format                                   : AC-3
Format/Info                              : Audio Coding 3
Mode extension                           : CM (complete main)
Format settings, Endianness              : Big
Codec ID                                 : 2000
Duration                                 : 2h 24mn
Bit rate mode                            : Constant
Bit rate                                 : 192 Kbps


kód:
http://www.fastshare.cz/4307993/hobit-bitva-peti-armad-2014.avi#.VP9CfuH1NAw
kód:
http://download.hellshare.sk/hbpa-part1-part1-rar/30486842/
http://download.hellshare.sk/hbpa-part1-part2-rar/30489371/


kód:

Format                                   : AVI
Format/Info                              : Audio Video Interleave
File size                                : 1.15 GiB
Duration                                 : 2h 24mn
Overall bit rate                         : 1 137 Kbps

Video

Format                                   : MPEG-4 Visual
Format profile                           : Advanced Simple@L5
Duration                                 : 2h 24mn
Bit rate                                 : 1 000 Kbps
Width                                    : 640 pixels
Height                                   : 272 pixels
Display aspect ratio                     : 2.35:1
Frame rate                               : 23.976 fps
Color space                              : YUV
Chroma subsampling                       : 4:2:0
Compression mode                         : Lossy
Bits/(Pixel*Frame)                       : 0.239
Stream size                              : 1.01 GiB (88%)


Audio

Format                                   : MPEG Audio
Format version                           : Version 1
Format profile                           : Layer 3
Mode                                     : Joint stereo
Mode extension                           : MS Stereo
Codec ID/Hint                            : MP3
Duration                                 : 2h 24mn
Bit rate                                 : 128 Kbps
Channel(s)                               : 2 channels
Sampling rate                            : 44.1 KHz
Compression mode                         : Lossy
Stream size                              : 132 MiB (11%)


kód:
http://www.fastshare.cz/4308492/hobit-bitva-peti-armad-the-hobbit-2014-.avi#.VP9GBOH1NAw
kód:
http://download.hellshare.sk/hobit-bitva-peti-armad-the-hobbit-2014-avi/30491676/
Návrat hore Goto down
Zobrazit informácie o autorovi
 
Hobit: Bitva pěti armád / The Hobbit (2014)
Zobraziť predchádzajúcu tému Zobraziť nasledujúcu tému Návrat hore 
Strana 1 z 1

Povolenie tohoto fóra:Nemôžete odpovedať na témy v tomto fóre.
Vsetko zadarmo :: .::Download filmy::. :: .::Filmy s ceskym a slovenskym dabingom::.-
Prejdi na: