Vsetko zadarmo

Vsetko zadarmo
 
DomovFAQHľadaťRegistráciaZoznam užívateľovUžívateľské skupinyPrihlásenie

Share | 
 

 Trojská válka/Trojan War (1997)

Zobraziť predchádzajúcu tému Zobraziť nasledujúcu tému Goto down 
AutorSpráva
aismen
Mega Uploader
Mega Uploader


Počet príspevkov : 703
Registration date : 16.04.2008

OdoslaťPredmet: Trojská válka/Trojan War (1997)   Ne august 12, 2012 6:33 pm

Trójska vojna
Trojan War
Trojská válka


Komedie
USA, 1997, 80 min

CSFD

Režie: George Huang
Hudba: George S. Clinton
Hrají: Will Friedle, Jennifer Love Hewitt, Marley Shelton, Jason Marsden, Eric Balfour, Charlotte Ayanna, Lee Majors, Wendie Malick, David Patrick Kelly, Anthony Michael Hall, Danny Trejo, Danny Masterson, John Finn, Tito Larriva, Chauncey Leopardi, Kathy Griffin, Paulo Tocha 

INFO:
kód:
Format: AVI
Format/Info: Audio Video Interleave
File size: 953 MiB
Duration: 1h 23mn
Overall bit rate: 1 600 Kbps
Writing application: VirtualDubMod 1.5.4.1 (build 2066/release)
Writing library: VirtualDubMod build 2066/release

Video
ID: 0
Format: MPEG-4 Visual
Format profile: Advanced Simple@L5
Format settings, BVOP: 1
Format settings, QPel: No
Format settings, GMC: No warppoints
Format settings, Matrix: Default (MPEG)
Muxing mode: Packed bitstream
Codec ID: XVID
Codec ID/Hint: XviD
Duration: 1h 23mn
Bit rate: 1 262 Kbps
Width: 576 pixels
Height: 320 pixels
Display aspect ratio: 16:9
Frame rate: 29.970 fps
Color space: YUV
Chroma subsampling: 4:2:0
Bit depth: 8 bits
Scan type: Progressive
Compression mode: Lossy
Bits/(Pixel*Frame): 0.229
Stream size: 752 MiB (79%)
Writing library: XviD 1.2.0.dev47 (UTC 2006-11-01)

Audio
ID: 1
Format: MPEG Audio
Format version: Version 1
Format profile: Layer 3
Mode: Joint stereo
Mode extension: MS Stereo
Codec ID: 55
Codec ID/Hint: MP3
Duration: 1h 23mn
Bit rate mode: Constant
Bit rate: 128 Kbps
Channel(s): 2 channels
Sampling rate: 48.0 KHz
Compression mode: Lossy
Stream size: 76.3 MiB (8%)
Alignment: Aligned on interleaves
Interleave, duration: 33 ms (1.00 video frame)
Interleave, preload duration: 504 ms
Writing library: LAME3.97b
Encoding settings: -m j -V 4 -q 2 -lowpass 17 -b 128

DOWNLOAD:
hellshare
kód:
http://download.hellshare.com/trojska-valka-1997-avi/8497823

BEZ HESLA
Návrat hore Goto down
Zobrazit informácie o autorovi http://warnerfilm.forumn.org
 
Trojská válka/Trojan War (1997)
Zobraziť predchádzajúcu tému Zobraziť nasledujúcu tému Návrat hore 
Strana 1 z 1

Povolenie tohoto fóra:Nemôžete odpovedať na témy v tomto fóre.
Vsetko zadarmo :: .::Download filmy::. :: .::Filmy s ceskym a slovenskym dabingom::.-
Prejdi na: