Vsetko zadarmo

Vsetko zadarmo
 
DomovFAQHľadaťRegistráciaZoznam užívateľovUžívateľské skupinyPrihlásenie

Share | 
 

 Jsem číslo čtyři / I Am Number Four (2011)

Zobraziť predchádzajúcu tému Zobraziť nasledujúcu tému Goto down 
AutorSpráva
aismen
Mega Uploader
Mega Uploader


Počet príspevkov : 703
Registration date : 16.04.2008

OdoslaťPredmet: Jsem číslo čtyři / I Am Number Four (2011)    Ne november 13, 2011 11:10 am

Som číslo štyri
I Am Number Four
Jsem číslo čtyři


Akční / Sci-Fi
USA, 2011, 109 min
Režie:
D.J. Caruso

Hudba:
Trevor Rabin

Hrají:
Alex Pettyfer, Timothy Olyphant, Teresa Palmer, Dianna Agron, Callan McAuliffe, Kevin Durand, Judith Hoag

Obsah

zobrazit všechny obsahy

Jsem Číslo čtyři je napínavý thriller o pozoruhodném mladém muži
Johnovi Smithovi (Alex Pettyfer), který je na útěku před nemilosrdnými
nepřáteli, usilujícími o jeho život. Neustále změny identity a stěhování
z města do města ve společnosti svého ochránce Henriho (Timothy
Olyphant) jsou příčinou toho, že je John neustále všude nováčkem, který
nemá nikde žádné kořeny. Malé městečko v Ohiu, kde nyní žije, je svědkem
nečekaných a převratných událostí, které změní Johnův život – seznámení
s jeho první láskou (Dianna Agron), objevení nových schopností a
nalezení spojení s ostatními, kteří sdílejí jeho neuvěřitelný osud

kód:
General
Complete name                    : C:\Users\Pipo\Desktop\cislo.4.2011.avi
Format                          : AVI
Format/Info                      : Audio Video Interleave
File size                        : 867 MiB
Duration                        : 1h 49mn
Overall bit rate                : 1 106 Kbps
Writing application              : VirtualDubMod 1.5.10.2 (build 2540/release)
Writing library                  : VirtualDubMod build 2540/release

Video
ID                              : 0
Format                          : MPEG-4 Visual
Format profile                  : Advanced Simple@L5
Format settings, BVOP            : 2
Format settings, QPel            : Yes
Format settings, GMC            : No warppoints
Format settings, Matrix          : Default (H.263)
Codec ID                        : XVID
Codec ID/Hint                    : XviD
Duration                        : 1h 49mn
Bit rate                        : 969 Kbps
Width                            : 688 pixels
Height                          : 368 pixels
Display aspect ratio            : 1.870
Frame rate                      : 23.976 fps
Color space                      : YUV
Chroma subsampling              : 4:2:0
Bit depth                        : 8 bits
Scan type                        : Progressive
Compression mode                : Lossy
Bits/(Pixel*Frame)              : 0.160
Stream size                      : 759 MiB (88%)
Writing library                  : XviD 1.2.1 (UTC 2008-12-04)

Audio
ID                              : 1
Format                          : MPEG Audio
Format version                  : Version 1
Format profile                  : Layer 3
Mode                            : Joint stereo
Mode extension                  : MS Stereo
Codec ID                        : 55
Codec ID/Hint                    : MP3
Duration                        : 1h 49mn
Bit rate mode                    : Constant
Bit rate                        : 128 Kbps
Channel(s)                      : 2 channels
Sampling rate                    : 48.0 KHz
Compression mode                : Lossy
Delay relative to video          : 24ms
Stream size                      : 100 MiB (12%)
Alignment                        : Aligned on interleaves
Interleave, duration            : 42 ms (1.00 video frame)
Interleave, preload duration    : 504 ms

DOWNLOAD:
kód:
http://www.upnito.sk/subor/0ca90cd7ce9ccb27b874d2ee698fc19c.html
PASS:
no
Návrat hore Goto down
Zobrazit informácie o autorovi http://warnerfilm.forumn.org
 
Jsem číslo čtyři / I Am Number Four (2011)
Zobraziť predchádzajúcu tému Zobraziť nasledujúcu tému Návrat hore 
Strana 1 z 1

Povolenie tohoto fóra:Nemôžete odpovedať na témy v tomto fóre.
Vsetko zadarmo :: .::Download filmy::. :: .::Filmy s ceskym a slovenskym dabingom::.-
Prejdi na: