Vsetko zadarmo

Vsetko zadarmo
 
DomovFAQHľadaťRegistráciaZoznam užívateľovUžívateľské skupinyPrihlásenie

Share | 
 

 Zdrojový kód/Source Code(2011)

Zobraziť predchádzajúcu tému Zobraziť nasledujúcu tému Goto down 
AutorSpráva
aismen
Mega Uploader
Mega Uploader


Počet príspevkov : 703
Registration date : 16.04.2008

OdoslaťPredmet: Zdrojový kód/Source Code(2011)   Ne november 13, 2011 11:09 am

Zdrojový kód
Source Code
Zdrojový kód



Mysteriózní / Sci-Fi / Thriller
USA, 2011, 93 min

Režie:Duncan Jones
Hudba:Chris Bacon
Hrají:Jake Gyllenhaal, Michelle Monaghan, Vera Farmiga, Jeffrey Wright, Russell Peters, Albert Kwan, Scott Bakula

Když se kapitán Colter Stevens (Jake Gyllenhaal) probudí v sedadle
příměstského vlaku, netuší, kde se tam vzal. Naproti němu sedí Christina
(Michelle Monaghan). Colter ji vidí poprvé v životě, ale Christina ho
očividně dobře zná. Colter Stevens zjišťuje, že se probudil v těle
jiného člověka. Než se stihne z nastalé situace vzpamatovat, je vlak
rozmetán silným výbuchem. V zápětí se Colter se objeví v podivném bunkru
izolovaném od okolního světa. Přes obrazovku k němu mluví důstojnice
Goodwin (Vera Farminga) a požaduje informace o všem, co právě viděl.
Kapitán Colter Stevens se stal součástí náročné mise, jejímž cílem je
odhalení útočníka, který má na svědomí výbuch vlaku, v němž se Colter
ještě před chvílí nalézal. Atentátník plánuje mnohem větší výbuch přímo v
srdci Chicaga a jeho dopadením tak může Colter zachránit tisíce životů.
Tato vládní mise je založena na experimentu nazvaném Zdrojový kód,
který Colterovi umožňuje na chvíli existovat v paralelní realitě - v
těle Seana v chicagském příměstském vlaku. Seanovu identitu může
využívat pouze osm minut, má tedy právě osm minut na odhalení bombového
útočníka. Zdrojový kód zvládá poslat Coltera do stejného časového úseku
vícekrát. Získává tak více času, ale situace se mu může snadno vymknout z
rukou…

kód:
Format                          : AVI
Format/Info                      : Audio Video Interleave
File size                        : 848 MiB
Duration                        : 1h 33mn
Overall bit rate                : 1 272 Kbps
Writing application              : VirtualDubMod 1.5.10.2 (build 2540/release)
Writing library                  : VirtualDubMod build 2540/release

ID                              : 0
Format                          : MPEG-4 Visual
Format profile                  : Advanced Simple@L5
Format settings, BVOP            : 2
Format settings, QPel            : No
Format settings, GMC            : No warppoints
Format settings, Matrix          : Default (H.263)
Codec ID                        : XVID
Codec ID/Hint                    : XviD
Duration                        : 1h 33mn
Bit rate                        : 1 135 Kbps
Width                            : 640 pixels
Height                          : 352 pixels
Display aspect ratio            : 16:9
Frame rate                      : 23.976 fps
Color space                      : YUV
Chroma subsampling              : 4:2:0
Bit depth                        : 8 bits
Scan type                        : Progressive
Compression mode                : Lossy
Bits/(Pixel*Frame)              : 0.210
Stream size                      : 756 MiB (89%)
Writing library                  : XviD 1.2.1 (UTC 2008-12-04)

ID                              : 1
Format                          : MPEG Audio
Format version                  : Version 1
Format profile                  : Layer 3
Mode                            : Joint stereo
Mode extension                  : MS Stereo
Codec ID                        : 55
Codec ID/Hint                    : MP3
Duration                        : 1h 33mn
Bit rate mode                    : Constant
Bit rate                        : 128 Kbps
Channel(s)                      : 2 channels
Sampling rate                    : 48.0 KHz
Compression mode                : Lossy
Delay relative to video          : 24ms
Stream size                      : 85.3 MiB (10%)
Alignment                        : Aligned on interleaves
Interleave, duration            : 42 ms (1.00 video frame)
Interleave, preload duration    : 504 ms

DOWNLOAD:
kód:
http://www.upnito.sk/subor/96b8330444294f7701ccef9e4524208c.html

kód:
http://download.hellshare.sk/zdrojovy-kod-avi/3490793/
PASS:

NO
Návrat hore Goto down
Zobrazit informácie o autorovi http://warnerfilm.forumn.org
 
Zdrojový kód/Source Code(2011)
Zobraziť predchádzajúcu tému Zobraziť nasledujúcu tému Návrat hore 
Strana 1 z 1

Povolenie tohoto fóra:Nemôžete odpovedať na témy v tomto fóre.
Vsetko zadarmo :: .::Download filmy::. :: .::Filmy s ceskym a slovenskym dabingom::.-
Prejdi na: