Vsetko zadarmo

Vsetko zadarmo
 
DomovFAQHľadaťRegistráciaZoznam užívateľovUžívateľské skupinyPrihlásenie

Share | 
 

 Hop/Hop(2011)

Zobraziť predchádzajúcu tému Zobraziť nasledujúcu tému Goto down 
AutorSpráva
aismen
Mega Uploader
Mega Uploader


Počet príspevkov : 703
Registration date : 16.04.2008

OdoslaťPredmet: Hop/Hop(2011)   Ne november 13, 2011 11:08 am

Hop
Hop
Hop


Komedie
USA, 2011, 95 min

Režie:Tim Hill
Hudba:Christopher Lennertz
Hrají:Russell Brand, James Marsden, Kaley Cuoco, Hank Azaria, Gary Cole, Elizabeth Perkins, David Hasselhoff, Hugh Laurie


Hlavním hrdinou snímku je velikonoční zajíček Hop snící o budoucnosti
rockové hvězdy. Jednoho dne však Hopa přejede autem Fred, mladý ulejvák,
u kterého se v tu chvíli probudí něco jako černé svědomí. Vezme Hopa
domů a slíbí mu, že se postará jak o něj, tak o část jeho velikonočních
povinností. Oba nesourodí spolubydlící se však velmi rychle naučí, že je
čas dospět.
kód:

INFO:
Format                          : AVI
Format/Info                      : Audio Video Interleave
File size                        : 698 MiB
Duration                        : 1h 35mn
Overall bit rate                : 1 027 Kbps
Writing application              : VirtualDubMod 1.5.10.2 (build 2540/release)
Writing library                  : VirtualDubMod build 2540/release

ID                              : 0
Format                          : MPEG-4 Visual
Format profile                  : Advanced Simple@L5
Format settings, BVOP            : 4
Format settings, QPel            : No
Format settings, GMC            : No warppoints
Format settings, Matrix          : Default (MPEG)
Muxing mode                      : Packed bitstream
Codec ID                        : XVID
Codec ID/Hint                    : XviD
Duration                        : 1h 35mn
Bit rate                        : 890 Kbps
Width                            : 640 pixels
Height                          : 352 pixels
Display aspect ratio            : 16:9
Frame rate                      : 23.976 fps
Color space                      : YUV
Chroma subsampling              : 4:2:0
Bit depth                        : 8 bits
Scan type                        : Progressive
Compression mode                : Lossy
Bits/(Pixel*Frame)              : 0.165
Stream size                      : 605 MiB (87%)
Writing library                  : XviD 62

ID                              : 1
Format                          : MPEG Audio
Format version                  : Version 1
Format profile                  : Layer 3
Mode                            : Joint stereo
Codec ID                        : 55
Codec ID/Hint                    : MP3
Duration                        : 1h 35mn
Bit rate mode                    : Constant
Bit rate                        : 128 Kbps
Channel(s)                      : 2 channels
Sampling rate                    : 48.0 KHz
Compression mode                : Lossy
Delay relative to video          : 24ms
Stream size                      : 87.0 MiB (12%)
Alignment                        : Aligned on interleaves
Interleave, duration            : 42 ms (1.00 video frame)
Interleave, preload duration    : 504 ms


DOWNLOAD:
kód:
http://download.hellshare.sk/hop-2011-avi/3500439/

PASS:

no
Návrat hore Goto down
Zobrazit informácie o autorovi http://warnerfilm.forumn.org
 
Hop/Hop(2011)
Zobraziť predchádzajúcu tému Zobraziť nasledujúcu tému Návrat hore 
Strana 1 z 1

Povolenie tohoto fóra:Nemôžete odpovedať na témy v tomto fóre.
Vsetko zadarmo :: .::Download filmy::. :: .::Filmy s ceskym a slovenskym dabingom::.-
Prejdi na: