Vsetko zadarmo

Vsetko zadarmo
 
DomovFAQHľadaťRegistráciaZoznam užívateľovUžívateľské skupinyPrihlásenie

Share | 
 

 Devínsky masaker/Děvínský masakr(2011)

Zobraziť predchádzajúcu tému Zobraziť nasledujúcu tému Goto down 
AutorSpráva
aismen
Mega Uploader
Mega Uploader


Počet príspevkov : 703
Registration date : 16.04.2008

OdoslaťPredmet: Devínsky masaker/Děvínský masakr(2011)   Ne november 13, 2011 11:06 am

Devínsky masaker
Děvínský masakr





Dokumentární / Drama
Slovensko, 2011, 69 min

Režie:Gejza Dezorz, Jozef Páleník
Hudba:Marián Čurko
Hrají:Marián Slovák, Pavel Vrabec


V našich zemích ojedinělý film žánru dokudrama nabízí detailní
rekonstrukci tragické události, kdy Lubomír Harman vyvraždil obyvatele
sousedního bytu na bratislavském sídlišti Devínská Nová Ves. Film podle
skutečné události představuje masovou brutální vraždu, která loni v létě
otřásla celou slovenskou i českou společností a stala se
nejmedializovanější událostí za poslední roky a dodnes vyvolává řadu
otázek. Film představuje klíčové okamžiky jako rekonstruované hrané
scény a to jak z pohledu vraha, tak obětí, zároveň však pracuje s
autentickými záběry, skutečnými výpověďmi svědků, přímých účastníků a
pozůstalých. Snímek se zabývá i tím, co tragické události předcházelo.
„Co vedlo elitního střelce k tomuto hrůznému činu? Měla vražda rasový
podtext? Co vedlo do té doby slušného a tichého člověka k tomu, že se
rozhodl takto řešit nějaký problém? “, to vše se snaží zodpovědět tento
film, který na Slovensku po své premiéře letos v únoru vyvolal vášnivé
debaty a reakce.

info:
kód:
Format                          : AVI
Format/Info                      : Audio Video Interleave
File size                        : 627 MiB
Duration                        : 1h 5mn
Overall bit rate                : 1 336 Kbps
Writing application              : MEncoder SVN-r29352(20090610-gcc4.3.3)
Writing library                  : MPlayer

ID                              : 0
Format                          : MPEG-4 Visual
Format profile                  : Advanced Simple@L5
Format settings, BVOP            : 2
Format settings, QPel            : No
Format settings, GMC            : No warppoints
Format settings, Matrix          : Default (H.263)
Codec ID                        : XVID
Codec ID/Hint                    : XviD
Duration                        : 1h 5mn
Bit rate                        : 1 196 Kbps
Width                            : 720 pixels
Height                          : 576 pixels
Display aspect ratio            : 5:4
Frame rate                      : 25.000 fps
Standard                        : PAL
Color space                      : YUV
Chroma subsampling              : 4:2:0
Bit depth                        : 8 bits
Scan type                        : Progressive
Compression mode                : Lossy
Bits/(Pixel*Frame)              : 0.115
Stream size                      : 561 MiB (90%)
Writing library                  : XviD 1.2.1 (UTC 2008-12-04)


ID                              : 1
Format                          : MPEG Audio
Format version                  : Version 1
Format profile                  : Layer 3
Mode                            : Joint stereo
Mode extension                  : MS Stereo
Codec ID                        : 55
Codec ID/Hint                    : MP3
Duration                        : 1h 5mn
Bit rate mode                    : Constant
Bit rate                        : 128 Kbps
Channel(s)                      : 2 channels
Sampling rate                    : 44.1 KHz
Compression mode                : Lossy
Delay relative to video          : 40ms
Stream size                      : 60.0 MiB (10%)
Alignment                        : Aligned on interleaves
Interleave, duration            : 26 ms (0.65 video frame)
Interleave, preload duration    : 522 ms

DOWNLOAD:

kód:
http://download.hellshare.sk/devinsky-masaker-avi/3518734/
PASS:
no
Návrat hore Goto down
Zobrazit informácie o autorovi http://warnerfilm.forumn.org
 
Devínsky masaker/Děvínský masakr(2011)
Zobraziť predchádzajúcu tému Zobraziť nasledujúcu tému Návrat hore 
Strana 1 z 1

Povolenie tohoto fóra:Nemôžete odpovedať na témy v tomto fóre.
Vsetko zadarmo :: .::Download filmy::. :: .::Filmy s ceskym a slovenskym dabingom::.-
Prejdi na: