Vsetko zadarmo

Vsetko zadarmo
 
DomovFAQHľadaťRegistráciaZoznam užívateľovUžívateľské skupinyPrihlásenie

Share | 
 

 Harry Potter a Relikvie Smrti: část 2 CZ

Zobraziť predchádzajúcu tému Zobraziť nasledujúcu tému Goto down 
AutorSpráva
aismen
Mega Uploader
Mega Uploader


Počet príspevkov : 703
Registration date : 16.04.2008

OdoslaťPredmet: Harry Potter a Relikvie Smrti: část 2 CZ   Ne november 13, 2011 11:04 am

Harry Potter a Dary smrti - 2.
Harry Potter and the Deathly Hallows: Part 2
Harry Potter a Relikvie smrti - část 2




Dobrodružný / Drama / Rodinný / Fantasy
Velká Británie / USA, 2011, 130 min

Režie:David Yates
Hudba:Alexandre Desplat
Hrají:Daniel Radcliffe, Emma Watson, Rupert Grint, Helena Bonham Carter, Bonnie Wright, Maggie Smith, Evanna Lynch, Robbie Coltrane, Alan Rickman, Geraldine Somerville, Natalia Tena, Kelly Macdonald, Tom Felton, Emma Thompson, Ralph Fiennes, Michael Gambon, Gary Oldman, Jason Isaacs, Domhnall Gleeson, John Hurt, Ciarán Hinds, David Thewlis, Clémence Poésy, Helen McCrory, Jim Broadbent, Julie Walters, James Phelps, Matthew Lewis, Oliver Phelps, Jessie Cave, Miriam Margolyes, Mark Williams, Adrian Rawlins, Nick Moran, Sean Biggerstaff, Warwick Davis, Katie Leung, Gemma Jones, Scarlett Byrne, Anna Shaffer, Isabella Laughland, Chris Rankin, Devon Murray, Louis Cordice, Josh Herdman, Ryan Turner, Alfie Enoch, Afshan Azad, Guy Henry, David Bradley, Georgina Leonidas, Freddie Stroma, Robbie Jarvis, Emil Hostina, George Harris, William Melling, Arthur Bowen, Daphne de Beistegui, Helena Barlow


Přichází poslední dobrodružství ságy o Harry Potterovi. V tomto
výpravném finále eskaluje bitva mezi dobrem a zlem do otevřené války
čarodějného světa. Nikdy nebylo v sázce tolik jako teď. Nikdo už není v
bezpečí. Je to ale Harry Potter, kdo možná bude muset podstoupit oběť
největší, když se přiblíží rozhodující bitva s Lordem Voldemortem. Tady
všechno končí ...

INFO:
kód:
Format                          : AVI
Format/Info                      : Audio Video Interleave
File size                        : 1.46 GiB
Duration                        : 1h 57mn
Overall bit rate                : 1 785 Kbps

ID                              : 0
Format                          : MPEG-4 Visual
Format profile                  : Advanced Simple@L5
Format settings, BVOP            : 2
Format settings, QPel            : No
Format settings, GMC            : No warppoints
Format settings, Matrix          : Default (MPEG)
Codec ID                        : XVID
Codec ID/Hint                    : XviD
Duration                        : 1h 56mn
Bit rate                        : 1 651 Kbps
Width                            : 720 pixels
Height                          : 304 pixels
Display aspect ratio            : 2.35:1
Frame rate                      : 25.000 fps
Color space                      : YUV
Chroma subsampling              : 4:2:0
Bit depth                        : 8 bits
Scan type                        : Progressive
Compression mode                : Lossy
Bits/(Pixel*Frame)              : 0.302
Stream size                      : 1.35 GiB (92%)
Writing library                  : XviD 1.2.1 (UTC 2008-12-04)

ID                              : 1
Format                          : MPEG Audio
Format version                  : Version 1
Format profile                  : Layer 3
Codec ID                        : 55
Codec ID/Hint                    : MP3
Duration                        : 1h 57mn
Bit rate mode                    : Constant
Bit rate                        : 128 Kbps
Channel(s)                      : 2 channels
Sampling rate                    : 44.1 KHz
Compression mode                : Lossy
Stream size                      : 107 MiB (7%)
Alignment                        : Aligned on interleaves
Interleave, duration            : 40 ms (1.00 video frame)

DOWNLOAD:
kód:
http://www.upnito.sk/subor/29d1e7a88c911edb89c6aa44bfcab80b.html
http://www.upnito.sk/subor/580c47015224b89ebee6344fafd44140.html
http://www.upnito.sk/subor/4b51ec4deddeb9cde9ba271b82ff539b.html

kód:
http://download.hellshare.sk/harry-potter-a-relikvie-smrti-cast-2-cz-dabing-avi/3522266
PASS:
no
Návrat hore Goto down
Zobrazit informácie o autorovi http://warnerfilm.forumn.org
 
Harry Potter a Relikvie Smrti: část 2 CZ
Zobraziť predchádzajúcu tému Zobraziť nasledujúcu tému Návrat hore 
Strana 1 z 1

Povolenie tohoto fóra:Nemôžete odpovedať na témy v tomto fóre.
Vsetko zadarmo :: .::Download filmy::. :: .::Filmy s ceskym a slovenskym dabingom::.-
Prejdi na: