Vsetko zadarmo

Vsetko zadarmo
 
DomovFAQHľadaťRegistráciaZoznam užívateľovUžívateľské skupinyPrihlásenie

Share | 
 

 Krokodýlové z předměstí 3 / Vorstadtkrokodile 3 (2011)

Zobraziť predchádzajúcu tému Zobraziť nasledujúcu tému Goto down 
AutorSpráva
aismen
Mega Uploader
Mega Uploader


Počet príspevkov : 703
Registration date : 16.04.2008

OdoslaťPredmet: Krokodýlové z předměstí 3 / Vorstadtkrokodile 3 (2011)    Ne november 06, 2011 9:57 pm

Vorstadtkrokodile 3
Krokodýlové z předměstí 3


Akční / Dobrodružný / Komedie
Německo, 2011, 81 min

CSFD

Režie:Wolfgang Groos
Hudba:Heiko Maile
Hrají:Nick Romeo Reimann, Manuel Steitz, Ella-Maria Gollmer, Nora Tschirner, Jacob Matschenz, Axel Stein, Jochen Nickel, Michael Kessler, Maria Schrader

Frank se ale vážně zraní a potřebuje co nejdřív transplantaci jater. Čas neúprosně běží a jediným vhodným dárcem je Frankův bratr Dennis. Ten je ale momentálně za mřížemi. Ředitel věznice jim odmítá pomoci. Jenže Krokodýli musí Dennise za každou cenu dostat ven! Vždyť jde o život jejich kamaráda!

INFO:
kód:
Format                          : AVI
Format/Info                      : Audio Video Interleave
File size                        : 926 MiB
Duration                        : 1h 20mn
Overall bit rate                : 1 609 Kbps
Writing application              : VirtualDubMod 1.5.10.2 (build 2540/release)
Writing library                  : VirtualDubMod build 2540/release

Video
ID                              : 0
Format                          : MPEG-4 Visual
Format profile                  : Advanced Simple@L5
Format settings, BVOP            : 1
Format settings, QPel            : No
Format settings, GMC            : No warppoints
Format settings, Matrix          : Custom
Codec ID                        : XVID
Codec ID/Hint                    : XviD
Duration                        : 1h 20mn
Bit rate                        : 1 471 Kbps
Width                            : 640 pixels
Height                          : 352 pixels
Display aspect ratio            : 16:9
Frame rate                      : 25.000 fps
Color space                      : YUV
Chroma subsampling              : 4:2:0
Bit depth                        : 8 bits
Scan type                        : Progressive
Compression mode                : Lossy
Bits/(Pixel*Frame)              : 0.261
Stream size                      : 847 MiB (91%)
Writing library                  : XviD 63

Audio
ID                              : 1
Format                          : MPEG Audio
Format version                  : Version 1
Format profile                  : Layer 3
Mode                            : Joint stereo
Mode extension                  : MS Stereo
Codec ID                        : 55
Codec ID/Hint                    : MP3
Duration                        : 1h 20mn
Bit rate mode                    : Constant
Bit rate                        : 128 Kbps
Channel(s)                      : 2 channels
Sampling rate                    : 48.0 KHz
Compression mode                : Lossy
Delay relative to video          : 24ms
Stream size                      : 73.7 MiB (8%)
Alignment                        : Aligned on interleaves
Interleave, duration            : 40 ms (1.00 video frame)
Interleave, preload duration    : 504 ms

DOWNLOAD:
hellshare
kód:
http://download.hellshare.sk/vorstadtkrokodile-3-2011-dvdrip-xvid-cz-leaders-avi/3978057

euroshare
kód:
http://euroshare.eu/file/2173099/vorstadtkrokodile.3.2011.dvdrip.xvid.cz-leaders.avi

BEZ HESLA
Návrat hore Goto down
Zobrazit informácie o autorovi http://warnerfilm.forumn.org
 
Krokodýlové z předměstí 3 / Vorstadtkrokodile 3 (2011)
Zobraziť predchádzajúcu tému Zobraziť nasledujúcu tému Návrat hore 
Strana 1 z 1

Povolenie tohoto fóra:Nemôžete odpovedať na témy v tomto fóre.
Vsetko zadarmo :: .::Download filmy::. :: .::Filmy s ceskym a slovenskym dabingom::.-
Prejdi na: