Vsetko zadarmo

Vsetko zadarmo
 
DomovFAQHľadaťRegistráciaZoznam užívateľovUžívateľské skupinyPrihlásenie

Share | 
 

 Žhavé výstřely / Hot Shots! (1991)

Zobraziť predchádzajúcu tému Zobraziť nasledujúcu tému Goto down 
AutorSpráva
aismen
Mega Uploader
Mega Uploader


Počet príspevkov : 703
Registration date : 16.04.2008

OdoslaťPredmet: Žhavé výstřely / Hot Shots! (1991)   Ne november 06, 2011 9:19 pm

Horúce strely
Hot Shots!
Žhavé výstřely


Akční / Komedie / Válečný / Romantický
USA, 1991, 84 min

CSFD

Režie:Jim Abrahams
Hudba:Sylvester Levay
Hrají:Charlie Sheen, Cary Elwes, Valeria Golino, Lloyd Bridges, Kevin Dunn, Jon Cryer, Kristy Swanson, Efrem Zimbalist Jr., Heidi Swedberg, Ryan Stiles, Ryan Cutrona, Pat Proft, Cylk Cozart, Jimmie Ray Weeks, Charles Barkley, Christopher Doyle, Dave Oliver, Marc Shaiman

Na začátku se velitel vojenské letecké základny Block vydá do prérie, aby přiměl k návratu nejlepšího pilota námořního letectva, Seana Harleye, řečeného Machr, který odešel od letectva kvůli fobii způsobené selháním jeho otce před dvaceti lety. Mladík žije mezi indiány pod jménem Měkká Tlapička a odmítá se vrátit. Na radu moudrého indiánského starce však své rozhodnutí změní. Na základně se seznámí nejen s kolegy - šilhavým pilotem Jimem Pfaffenbachem zvaným Průserář, obětavým Petem Thompsonem řečeným Smolař a Kentem Gregorym, který obviní jeho otce ze smrti svého otce - ale také se sympatickou psychiatričkou Ramadou Thompsonovou. Piloti se připravují na tajnou operaci Spící lasička, jejímž cílem je zlikvidovat atomové základny arabského diktátora. Průmyslník Wilson chce prosadit do výzbroje vlastní superletadlo a to i za cenu sabotáže. Vybere si k tomu právě letadla připravující se do akce. Mezitím se ve vojenském baru setká Ramada se svým bývalým milencem Kentem a novým přítelem Machrem. Večer skončí rvačkou mezi oběma soky a poté kulinářsko milostnými hrátkami Machra s Ramadou. Kvůli tomu ovšem pilot zmešká ranní nástup a do vzduchu místo něj vzlétne Průserář, který svou šilhavostí způsobí děsivou havárii. Přesto jednotka odlétá do oblasti Středozemního moře, kde se na letadlové lodi mají připravit k akci. Přes velmi špatný psychický stav je Machr postaven do čela formace. Vinou sabotáže však nemohou piloti nepřítele zasáhnout, což vyřeší kapitán Block tím, že otupělému Machrovi vypráví do sluchátka o hrdinství jeho otce, čímž pilota vzpruží a ten se hravě vypořádá jak s nepřátelskými letadly, tak s jejich základnou i diktátorem samotným. Na palubu letadlové lodi se sice vrátí jako pravý hrdina ve vraku bez podvozku, paliva i bez křídel, ale zhrzen nešťastnou láskou - domnívá se, že Ramada miluje Kenta - se vrátí do prérie. V indiánském týpí ho však čeká několik nečekaných překvapení.

INFO:
kód:
Format                          : AVI
Format/Info                      : Audio Video Interleave
File size                        : 1.37 GiB
Duration                        : 1h 21mn
Overall bit rate                : 2 409 Kbps
Writing application              : VirtualDubMod 1.5.4.1 (build 2178/release)
Writing library                  : VirtualDubMod build 2178/release

Video
ID                              : 0
Format                          : MPEG-4 Visual
Format profile                  : Advanced Simple@L5
Format settings, BVOP            : 1
Format settings, QPel            : No
Format settings, GMC            : No warppoints
Format settings, Matrix          : Custom
Codec ID                        : XVID
Codec ID/Hint                    : XviD
Duration                        : 1h 21mn
Bit rate                        : 2 210 Kbps
Width                            : 720 pixels
Height                          : 400 pixels
Display aspect ratio            : 16:9
Frame rate                      : 25.000 fps
Color space                      : YUV
Chroma subsampling              : 4:2:0
Bit depth                        : 8 bits
Scan type                        : Progressive
Compression mode                : Lossy
Bits/(Pixel*Frame)              : 0.307
Stream size                      : 1.25 GiB (92%)
Writing library                  : XviD 1.2.1 (UTC 2008-12-04)

Audio
ID                              : 1
Format                          : AC-3
Format/Info                      : Audio Coding 3
Mode extension                  : CM (complete main)
Codec ID                        : 2000
Duration                        : 1h 21mn
Bit rate mode                    : Constant
Bit rate                        : 192 Kbps
Channel(s)                      : 2 channels
Channel positions                : Front: L R
Sampling rate                    : 48.0 KHz
Bit depth                        : 16 bits
Compression mode                : Lossy
Delay relative to video          : 80ms
Stream size                      : 112 MiB (8%)
Alignment                        : Split accross interleaves
Interleave, duration            : 96 ms (2.40 video frames)
Interleave, preload duration    : 96 ms
Language                        : Czech

DOWNLOAD:
hellshare
kód:
http://download.hellshare.sk/zhave-vystrely-avi/3975528

euroshare
kód:
http://euroshare.eu/file/2170680/have_vystrely.avi

BEZ HESLA
Návrat hore Goto down
Zobrazit informácie o autorovi http://warnerfilm.forumn.org
 
Žhavé výstřely / Hot Shots! (1991)
Zobraziť predchádzajúcu tému Zobraziť nasledujúcu tému Návrat hore 
Strana 1 z 1

Povolenie tohoto fóra:Nemôžete odpovedať na témy v tomto fóre.
Vsetko zadarmo :: .::Download filmy::. :: .::Filmy s ceskym a slovenskym dabingom::.-
Prejdi na: