Vsetko zadarmo

Vsetko zadarmo
 
DomovFAQHľadaťRegistráciaZoznam užívateľovUžívateľské skupinyPrihlásenie

Share | 
 

 Harry Potter a Kámen mudrců / Harry Potter and the Sorcerer'

Zobraziť predchádzajúcu tému Zobraziť nasledujúcu tému Goto down 
AutorSpráva
aismen
Mega Uploader
Mega Uploader


Počet príspevkov : 703
Registration date : 16.04.2008

OdoslaťPredmet: Harry Potter a Kámen mudrců / Harry Potter and the Sorcerer'   Ne november 06, 2011 9:05 pm

Harry Potter a Kameň mudrcov
Harry Potter and the Sorcerer's Stone
Harry Potter and the Philosopher's Stone
Harry Potter a Kámen mudrců


Fantasy / Dobrodružný / Rodinný / Mysteriózní
USA / Velká Británie, 2001, 152 min (SE: 159 min)

CSFD

Režie:Chris Columbus
Hudba:John Williams
Hrají:Daniel Radcliffe, Rupert Grint, Emma Watson, Robbie Coltrane, Tom Felton, Richard Harris, Fiona Shaw, Ian Hart, John Hurt, Richard Griffiths, Alan Rickman, Zoë Wanamaker, Maggie Smith, John Cleese, Geraldine Somerville, Warwick Davis, Julie Walters, Matthew Lewis, Terence Bayler, Sean Biggerstaff, Adrian Rawlins, Verne Troyer, Bonnie Wright, Oliver Phelps, James Phelps, David Bradley, Harry Melling, Elizabeth Spriggs, Leslie Phillips, Jamie Waylett, Chris Rankin, Devon Murray, Josh Herdman, Alfie Enoch, Julianne Hough, Scot Fearn

Kdo by dnes už alespoň nezaslechl jméno Harryho Pottera, čarodejnického učně, jehož neskutečná popularita mezi dětmi během krátké doby zasáhla i dospělé. Filmovou verzi jeho prvního příběhu zrežíroval Chris Columbus ve spolupráci s autorkou "potterovských" románů J. K. Rowlingovou a pod přísným a podnětným dohledem své dcery Eleanor přenesl na filmové plátno svět Školy čar a kouzel v Bradavicích v plném lesku a hávu hodném největšího kouzelníka na světě.

Celý příběh Kamene Mudrců se točí kolem sirotka Harryho Pottera. Tomu krátce po narození zahynou za neobvyklých událostí oba rodiče, a Harry proto musí vyrůstat v rodině strýce Vernona a tety Petunie, kteří mu neustále dávají najevo, že místo kde bydlí, není domov. O to větší překvapení ho čeká, když mu v den jeho jedenáctých narozenin přijde dopis, který je předzvěstí změny v jeho dosavadním životě. Od nynějška není obyčejným chlapcem, i když na to stále vypadá, ale stává se studentem Školy čar a kouzel v Bradavicích. Ani tento nový život však nebude procházka růžovou zahradou, obzvlášť když se začne probouzet Harryho záhadná minulost a její temný hrdina, Lord Voldemort...

INFO:
kód:
Format                          : AVI
Format/Info                      : Audio Video Interleave
File size                        : 1.10 GiB
Duration                        : 2h 30mn
Overall bit rate                : 1 045 Kbps

Video
ID                              : 0
Format                          : MPEG-4 Visual
Format settings, BVOP            : No
Format settings, QPel            : No
Format settings, GMC            : No warppoints
Format settings, Matrix          : Default (H.263)
Codec ID                        : DX50
Codec ID/Hint                    : DivX 5
Duration                        : 2h 30mn
Bit rate                        : 780 Kbps
Width                            : 720 pixels
Height                          : 576 pixels
Display aspect ratio            : 5:4
Frame rate                      : 25.000 fps
Standard                        : PAL
Color space                      : YUV
Chroma subsampling              : 4:2:0
Bit depth                        : 8 bits
Scan type                        : Progressive
Compression mode                : Lossy
Bits/(Pixel*Frame)              : 0.075
Stream size                      : 839 MiB (75%)
Writing library                  : DivX 5.1.1 (Maupiti) (UTC 2003-11-19)

Audio
ID                              : 1
Format                          : MPEG Audio
Format version                  : Version 1
Format profile                  : Layer 3
Codec ID                        : 55
Codec ID/Hint                    : MP3
Duration                        : 2h 30mn
Bit rate mode                    : Constant
Bit rate                        : 256 Kbps
Channel(s)                      : 2 channels
Sampling rate                    : 44.1 KHz
Compression mode                : Lossy
Stream size                      : 275 MiB (24%)
Alignment                        : Split accross interleaves
Interleave, duration            : 40 ms (1.00 video frame)
Writing library                  : LAMELAME_MAJOR_VERSI

euroshare
kód:
http://euroshare.eu/file/2099800/hp1_kamen_mudrcov_2001.avi

hellshare
kód:
http://download.hellshare.sk/hp1-kamen-mudrcov-2001-avi/3932798

BEZ HESLA
Návrat hore Goto down
Zobrazit informácie o autorovi http://warnerfilm.forumn.org
 
Harry Potter a Kámen mudrců / Harry Potter and the Sorcerer'
Zobraziť predchádzajúcu tému Zobraziť nasledujúcu tému Návrat hore 
Strana 1 z 1

Povolenie tohoto fóra:Nemôžete odpovedať na témy v tomto fóre.
Vsetko zadarmo :: .::Download filmy::. :: .::Filmy s ceskym a slovenskym dabingom::.-
Prejdi na: