Vsetko zadarmo

Vsetko zadarmo
 
DomovFAQHľadaťRegistráciaZoznam užívateľovUžívateľské skupinyPrihlásenie

Share | 
 

 Harry Potter a vězeň z Azkabanu / Harry Potter and the Priso

Zobraziť predchádzajúcu tému Zobraziť nasledujúcu tému Goto down 
AutorSpráva
aismen
Mega Uploader
Mega Uploader


Počet príspevkov : 703
Registration date : 16.04.2008

OdoslaťPredmet: Harry Potter a vězeň z Azkabanu / Harry Potter and the Priso   Ne november 06, 2011 8:53 pm

Harry Potter a väzeň z Azkabanu
Harry Potter and the Prisoner of Azkaban
Harry Potter a vězeň z Azkabanu


Fantasy / Mysteriózní / Dobrodružný / Rodinný
Velká Británie / USA, 2004, 141 min

CSFD

Režie:Alfonso Cuarón
Hudba:John Williams
Hrají:Daniel Radcliffe, Rupert Grint, Emma Watson, Pam Ferris, Emma Thompson, Tom Felton, Geraldine Somerville, Lenny Henry, Matthew Lewis, James Phelps, Oliver Phelps, Mark Williams, Robbie Coltrane, Julie Walters, David Thewlis, Maggie Smith, Alan Rickman, Gary Oldman, Michael Gambon, Miriam Margolyes, Dawn French, Julie Christie, Timothy Spall, Warwick Davis, Robert Hardy, Richard Griffiths, Fiona Shaw, Harry Melling, Bonnie Wright, Lee Ingleby, Bronson Webb, David Bradley, Adrian Rawlins, Jamie Waylett, Chris Rankin, Devon Murray, Josh Herdman, Alfie Enoch

Třináctiletý Harry Potter znovu nerad tráví své další prázdniny u rodiny Dursleyových, letos navíc se zlou tetou Marge. I přes přísný zákaz používání kouzel jí Harry promění v obrovský balón a v noci uteče záchranným autobusem do hospody Děravý kotel. Zde se setká s ministrem kouzel Korneliem Popletalem, který ho překvapivě za jeho provinění nepotrestá. Je to proto, že z vězení v Azkabanu uprchl nebezpečný čaroděj Sirius Black, který podle legend přivedl lorda Voldemorta k Harryho rodičům a je tak zodpovědný za jejich smrt. Nyní Voldemort usiluje také o zabití Harryho. A aby nebyl všem hrůzám konec, hostí Bradavická škola hrozivé azkabanské stráže, zvané mozkomoři. Ti mají za úkol ochraňovatt Harryho a další studenty před černým čarodějem. Střetnutí mezi Harrym a záhadným vězněm Siriem Černým se zdá být nevyhnutelné. Harry Potter bude potřebovat veškerou možnou kuráž, kouzla a podporu, aby dokázal odhalit pravdu a vazby na tajemnou minulost.

INFO:
kód:
Format                          : AVI
Format/Info                      : Audio Video Interleave
File size                        : 701 MiB
Duration                        : 2h 6mn
Overall bit rate                : 776 Kbps

Video
ID                              : 0
Format                          : MPEG-4 Visual
Format profile                  : Advanced Simple@L5
Format settings, BVOP            : 2
Format settings, QPel            : No
Format settings, GMC            : No warppoints
Format settings, Matrix          : Default (H.263)
Muxing mode                      : Packed bitstream
Codec ID                        : XVID
Codec ID/Hint                    : XviD
Duration                        : 2h 6mn
Bit rate                        : 654 Kbps
Width                            : 640 pixels
Height                          : 260 pixels
Display aspect ratio            : 2.462
Frame rate                      : 25.000 fps
Color space                      : YUV
Chroma subsampling              : 4:2:0
Bit depth                        : 8 bits
Scan type                        : Progressive
Compression mode                : Lossy
Bits/(Pixel*Frame)              : 0.157
Stream size                      : 591 MiB (84%)
Writing library                  : XviD 1.1.2 (UTC 2006-11-01)

Audio
ID                              : 1
Format                          : MPEG Audio
Format version                  : Version 1
Format profile                  : Layer 3
Codec ID                        : 55
Codec ID/Hint                    : MP3
Duration                        : 2h 6mn
Bit rate mode                    : Constant
Bit rate                        : 112 Kbps
Channel(s)                      : 2 channels
Sampling rate                    : 48.0 KHz
Compression mode                : Lossy
Delay relative to video          : 24ms
Stream size                      : 101 MiB (14%)
Alignment                        : Split accross interleaves
Interleave, duration            : 40 ms (1.00 video frame)
Title                            : Audio Stream
Writing library                  : LAME3.92

DOWNLOAD:
hellshare
kód:
http://download.hellshare.sk/harry-potter-a-vezen-z-azkabanu-2004-avi/3933022

euroshare
kód:
http://euroshare.eu/file/2099377/harry_potter_a_vezen_z_azkabanu_2004.avi

BEZ HESLA
Návrat hore Goto down
Zobrazit informácie o autorovi http://warnerfilm.forumn.org
 
Harry Potter a vězeň z Azkabanu / Harry Potter and the Priso
Zobraziť predchádzajúcu tému Zobraziť nasledujúcu tému Návrat hore 
Strana 1 z 1

Povolenie tohoto fóra:Nemôžete odpovedať na témy v tomto fóre.
Vsetko zadarmo :: .::Download filmy::. :: .::Filmy s ceskym a slovenskym dabingom::.-
Prejdi na: