Vsetko zadarmo

Vsetko zadarmo
 
DomovFAQHľadaťRegistráciaZoznam užívateľovUžívateľské skupinyPrihlásenie

Share | 
 

 Harry Potter a tajemná komnata / Harry Potter and the Chambe

Zobraziť predchádzajúcu tému Zobraziť nasledujúcu tému Goto down 
AutorSpráva
aismen
Mega Uploader
Mega Uploader


Počet príspevkov : 703
Registration date : 16.04.2008

OdoslaťPredmet: Harry Potter a tajemná komnata / Harry Potter and the Chambe   Ne november 06, 2011 8:28 pm

Harry Potter a Tajomná komnata
Harry Potter and the Chamber of Secrets
Harry Potter a Tajemná komnata


Fantasy / Mysteriózní / Dobrodružný / Rodinný
USA / Velká Británie / Německo, 2002, 161 min (SE: 174 min)

CSFD

Režie:Chris Columbus
Hudba:John Williams
Hrají:Daniel Radcliffe, Rupert Grint, Emma Watson, Maggie Smith, Kenneth Branagh, Richard Griffiths, Alan Rickman, Richard Harris, Fiona Shaw, Robbie Coltrane, Tom Felton, Matthew Lewis, Mark Williams, John Cleese, James Phelps, Oliver Phelps, Jason Isaacs, Julie Walters, Miriam Margolyes, Christian Coulson, Sean Biggerstaff, Warwick Davis, David Bradley, Adrian Rawlins, Gemma Jones, Shirley Henderson, Robert Hardy, Julian Glover, Peter O'Farrell, Toby Jones, Geraldine Somerville, Harry Melling, Bonnie Wright, Louis Doyle, Leslie Phillips, Jamie Waylett, Chris Rankin, Devon Murray, Josh Herdman, Alfie Enoch, Hugh Mitchell, Jamie Yeates, Scot Fearn

Harry Potter se po prázdninách vrací do Bradavic a nastupuje do druhého ročníku. A to i přes varování domácího skřítka Dobbyho, podle kterého mu v čarodějné škole hrozí smrt. Harry nedbá nářků skřítka působícího víc škody než užitku, ale potom se skutečně začnou dít podivné věci, na stěnách se objevují neznámé nápisy a několik studentů je přepadeno tajemným přízrakem. Co s tím má společného Tajemná komnata? Stojí za spiknutím opět Voldemort? Kdo je Zmijozelův dědic? Záhadu se Harry vydává rozluštit společně se svými starými známými - Ronem a Hermionou

INFO:
kód:
Format                          : AVI
Format/Info                      : Audio Video Interleave
File size                        : 990 MiB
Duration                        : 2h 34mn
Overall bit rate                : 897 Kbps
Writing application              : VirtualDubMod 1.5.4.1 (build 2178/release)
Writing library                  : VirtualDubMod build 2178/release

Video
ID                              : 0
Format                          : MPEG-4 Visual
Format profile                  : Advanced Simple@L5
Format settings, BVOP            : 1
Format settings, QPel            : No
Format settings, GMC            : No warppoints
Format settings, Matrix          : Custom
Codec ID                        : XVID
Codec ID/Hint                    : XviD
Duration                        : 2h 34mn
Bit rate                        : 769 Kbps
Width                            : 672 pixels
Height                          : 288 pixels
Display aspect ratio            : 2.35:1
Frame rate                      : 25.000 fps
Color space                      : YUV
Chroma subsampling              : 4:2:0
Bit depth                        : 8 bits
Scan type                        : Progressive
Compression mode                : Lossy
Bits/(Pixel*Frame)              : 0.159
Stream size                      : 849 MiB (86%)
Writing library                  : XviD 1.2.1 (UTC 2008-12-04)

Audio
ID                              : 1
Format                          : MPEG Audio
Format version                  : Version 1
Format profile                  : Layer 3
Mode                            : Joint stereo
Mode extension                  : MS Stereo
Codec ID                        : 55
Codec ID/Hint                    : MP3
Duration                        : 2h 34mn
Bit rate mode                    : Variable
Bit rate                        : 114 Kbps
Nominal bit rate                : 128 Kbps
Channel(s)                      : 2 channels
Sampling rate                    : 48.0 KHz
Compression mode                : Lossy
Stream size                      : 126 MiB (13%)
Alignment                        : Aligned on interleaves
Interleave, duration            : 24 ms (0.60 video frame)
Interleave, preload duration    : 160 ms
Writing library                  : LAME3.98r
Encoding settings                : -m j -V 4 -q 2 -lowpass 17 --abr 128
Language                        : Czech

DOWNLOAD:
hellshare
kód:
http://download.hellshare.sk/harry-potter-a-tajemna-komnata-2002-avi/3932531

euroshare
kód:
http://euroshare.eu/file/2099112/harry_potter_a_tajemna_komnata_2002.avi

BEZ HESLA
Návrat hore Goto down
Zobrazit informácie o autorovi http://warnerfilm.forumn.org
 
Harry Potter a tajemná komnata / Harry Potter and the Chambe
Zobraziť predchádzajúcu tému Zobraziť nasledujúcu tému Návrat hore 
Strana 1 z 1

Povolenie tohoto fóra:Nemôžete odpovedať na témy v tomto fóre.
Vsetko zadarmo :: .::Download filmy::. :: .::Filmy s ceskym a slovenskym dabingom::.-
Prejdi na: