Vsetko zadarmo

Vsetko zadarmo
 
DomovFAQHľadaťRegistráciaZoznam užívateľovUžívateľské skupinyPrihlásenie

Share | 
 

 Harry Potter a Princ dvojí krve / Harry Potter and the Half-

Zobraziť predchádzajúcu tému Zobraziť nasledujúcu tému Goto down 
AutorSpráva
aismen
Mega Uploader
Mega Uploader


Počet príspevkov : 703
Registration date : 16.04.2008

OdoslaťPredmet: Harry Potter a Princ dvojí krve / Harry Potter and the Half-   Ne november 06, 2011 8:08 pm

Harry Potter a Polovičný princ
Harry Potter and the Half-Blood Prince
Harry Potter a Princ dvojí krve


Dobrodružný / Fantasy / Mysteriózní / Romantický
Velká Británie / USA, 2009, 147 min

CSFD

Režie:David Yates
Hudba:Nicholas Hooper
Hrají:Daniel Radcliffe, Rupert Grint, Emma Watson, Alan Rickman, Tom Felton, Jim Broadbent, Helena Bonham Carter, Michael Gambon, Warwick Davis, Maggie Smith, David Thewlis, Helen McCrory, Mark Williams, Robbie Coltrane, Natalia Tena, Evanna Lynch, Julie Walters, Matthew Lewis, Bonnie Wright, Geraldine Somerville, Robert Knox, Anna Shaffer, Georgina Leonidas, Isabella Laughland, Louis Cordice, Jessie Cave, Scarlett Byrne, Freddie Stroma, Hero Fiennes - Tiffin, James Phelps, Oliver Phelps, David Bradley, Frank Dillane, Timothy Spall, Gemma Jones, Jamie Waylett, Devon Murray, Josh Herdman, Alfie Enoch, Afshan Azad, Shefali Chowdhury, William Melling, Dave Legeno

Povzbuzeni návratem Lorda Voldemorta působí Smrtijedi spoušť jak ve světě mudlů, tak ve světě kouzelníků a Bradavice už dávno nejsou tím bezpečným místem, jakým kdysi bývaly. Harry má podezření, že nebezpečí je přímo v Bradavicích, ale Brumbál se soustředí na přípravu na poslední bitvu, která se rychle blíží. Potřebuje, aby mu Harry pomohl odkrýt důležitý klíč, který vede k rozuzlení Voldemortovy obrany – rozhodující informaci ale zná jen bývalý bradavický profesor Horác Křiklan. Vědom si toho přiměje Brumbál svého starého kolegu, aby se vrátil na své staré místo, a slíbí mu vyšší plat, větší kancelář a navíc možnost učit slavného Harryho Pottera.Mezitím útočí na studenty ještě úplně jiný nepřítel – teenagerovské hormony. Harryho dlouhodobé přátelství s Ginny Weasleyovou přerůstá v hlubší city, ale v cestě stojí její přítel, Dean Thomas, a to nemluvě o jejím velkém bratru Ronovi. Jenže Ron má svých starostí dost s romantickými pletkami – Lavender Brownová nešetří svou láskou k němu a Hermiona v ústraní žárlí, ale je rozhodnuta neprojevit své city za žádnou cenu. A k tomu všemu ještě čokolády napuštěné nápojem lásky, které skončí ve špatných rukách a všechno naprosto změní.Romantika všude vzkvétá, ale jeden ze studentů zůstává od toho všeho stranou, neboť má v hlavě úplně jiné věci. Je rozhodnut vystoupit z davu a zanechat po sobě stopu, byť temnou. Láska je sice ve vzduchu, ale tragédie se blíží a ani Bradavice už nikdy nebudou takové, jaké bývaly.

INFO:
kód:
Format                          : AVI
Format/Info                      : Audio Video Interleave
File size                        : 806 MiB
Duration                        : 2h 27mn
Overall bit rate                : 765 Kbps
Writing application              : VirtualDubMod 1.5.4.1 (build 2178/release)
Writing library                  : VirtualDubMod build 2178/release

Video
ID                              : 0
Format                          : MPEG-4 Visual
Format profile                  : Advanced Simple@L5
Format settings, BVOP            : 1
Format settings, QPel            : No
Format settings, GMC            : No warppoints
Format settings, Matrix          : Custom
Codec ID                        : XVID
Codec ID/Hint                    : XviD
Duration                        : 2h 27mn
Bit rate                        : 566 Kbps
Width                            : 624 pixels
Height                          : 304 pixels
Display aspect ratio            : 2.053
Frame rate                      : 25.000 fps
Color space                      : YUV
Chroma subsampling              : 4:2:0
Bit depth                        : 8 bits
Scan type                        : Progressive
Compression mode                : Lossy
Bits/(Pixel*Frame)              : 0.119
Stream size                      : 596 MiB (74%)
Writing library                  : XviD 1.2.1 (UTC 2008-12-04)

Audio
ID                              : 1
Format                          : AC-3
Format/Info                      : Audio Coding 3
Mode extension                  : CM (complete main)
Codec ID                        : 2000
Duration                        : 2h 27mn
Bit rate mode                    : Constant
Bit rate                        : 192 Kbps
Channel(s)                      : 2 channels
Channel positions                : Front: L R
Sampling rate                    : 48.0 KHz
Bit depth                        : 16 bits
Compression mode                : Lossy
Stream size                      : 202 MiB (25%)
Alignment                        : Split accross interleaves
Interleave, duration            : 96 ms (2.40 video frames)
Interleave, preload duration    : 96 ms

DOWNLOAD:
hellshare
kód:
http://download.hellshare.sk/harry-potter-a-princ-dvoji-krve-2009-avi/3931234

euroshare
kód:
http://euroshare.eu/file/2098724/harry_potter_a_princ_dvoji_krve_2009.avi

BEZ HESLA
Návrat hore Goto down
Zobrazit informácie o autorovi http://warnerfilm.forumn.org
 
Harry Potter a Princ dvojí krve / Harry Potter and the Half-
Zobraziť predchádzajúcu tému Zobraziť nasledujúcu tému Návrat hore 
Strana 1 z 1

Povolenie tohoto fóra:Nemôžete odpovedať na témy v tomto fóre.
Vsetko zadarmo :: .::Download filmy::. :: .::Filmy s ceskym a slovenskym dabingom::.-
Prejdi na: