Vsetko zadarmo

Vsetko zadarmo
 
DomovFAQHľadaťRegistráciaZoznam užívateľovUžívateľské skupinyPrihlásenie

Share | 
 

 Cars 2 (2011) CZ

Zobraziť predchádzajúcu tému Zobraziť nasledujúcu tému Goto down 
AutorSpráva
aismen
Mega Uploader
Mega Uploader


Počet príspevkov : 703
Registration date : 16.04.2008

OdoslaťPredmet: Cars 2 (2011) CZ   Ne november 06, 2011 11:42 am

Autá 2
Cars 2
Auta 2


Animovaný / Komedie / Dobrodružný / Rodinný
USA, 2011, 106 min

CSFD

Režie:John Lasseter, Brad Lewis
Hudba:Michael Giacchino
Hrají:Owen Wilson, Cheech Marin, Tony Shalhoub, Larry The Cable Guy, Michael Caine, John Turturro, Emily Mortimer, Jason Isaacs, Joe Mantegna, Peter Jacobson, Thomas Kretschmann, Bonnie Hunt, Franco Nero, Eddie Izzard, Jeff Garlin, Paul Dooley, Jenifer Lewis, Katherine Helmond

Hvězdné závodní auto Blesk McQueen a jeho přítel, jedinečný odtahový vůz Burák, se dostanou na úžasná místa, když je jejich cesta zavede za moře. Tam budou soutěžit ve vůbec prvním celosvětovém závodě Grand Prix, kde se má rozhodnout o nejrychlejším autě na světě. Ale cesta na šampionát je plná děr, objížděk a komických překvapení, když se Burák připlete do svého vlastního netušeného dobrodružství - mezinárodní špionáže. Burák, který je rozpolcený tím, že má Bleskovi McQueenovi pomáhat ve vysokém závodu a zároveň se účastnit špionážní mise s nejvyšším utajením, se na své cestě plné akcí dostane do honičky, která ho zavede do ulic Japonska a Evropy, kde ho stopují jeho přátelé a sleduje celý svět. K legraci, která se odehrává v rychlém tempu se přidává pestrá směsice nových účinkujících aut včetně tajných agentů, hrozných darebáků a mezinárodních soupeřů.

INFO:
kód:
Format                          : AVI
Format/Info                      : Audio Video Interleave
File size                        : 700 MiB
Duration                        : 1h 47mn
Overall bit rate                : 914 Kbps

Video
ID                              : 0
Format                          : MPEG-4 Visual
Format profile                  : Advanced Simple@L5
Format settings, BVOP            : 2
Format settings, QPel            : No
Format settings, GMC            : No warppoints
Format settings, Matrix          : Custom
Codec ID                        : XVID
Codec ID/Hint                    : XviD
Duration                        : 1h 47mn
Bit rate                        : 773 Kbps
Width                            : 640 pixels
Height                          : 272 pixels
Display aspect ratio            : 2.35:1
Frame rate                      : 23.976 fps
Color space                      : YUV
Chroma subsampling              : 4:2:0
Bit depth                        : 8 bits
Scan type                        : Progressive
Compression mode                : Lossy
Bits/(Pixel*Frame)              : 0.185
Stream size                      : 592 MiB (85%)
Writing library                  : XviD 1.2.1 (UTC 2008-12-04)

Audio
ID                              : 1
Format                          : MPEG Audio
Format version                  : Version 1
Format profile                  : Layer 3
Mode                            : Joint stereo
Mode extension                  : MS Stereo
Codec ID                        : 55
Codec ID/Hint                    : MP3
Duration                        : 1h 47mn
Bit rate mode                    : Constant
Bit rate                        : 128 Kbps
Channel(s)                      : 2 channels
Sampling rate                    : 48.0 KHz
Compression mode                : Lossy
Stream size                      : 98.0 MiB (14%)
Alignment                        : Split accross interleaves
Interleave, duration            : 24 ms (0.58 video frame)
Writing library                  : LAME3.98.4UUUU qĆŰ

DOWNLOAD:
hellshare
kód:
http://download.hellshare.sk/cars-2-cz-2011-avi/3973798

euroshare
kód:
http://euroshare.eu/file/2164977/cars_2_cz_2011.avi

BEZ HESLA
Návrat hore Goto down
Zobrazit informácie o autorovi http://warnerfilm.forumn.org
 
Cars 2 (2011) CZ
Zobraziť predchádzajúcu tému Zobraziť nasledujúcu tému Návrat hore 
Strana 1 z 1

Povolenie tohoto fóra:Nemôžete odpovedať na témy v tomto fóre.
Vsetko zadarmo :: .::Download filmy::. :: .::Filmy s ceskym a slovenskym dabingom::.-
Prejdi na: