Vsetko zadarmo

Vsetko zadarmo
 
DomovFAQHľadaťRegistráciaZoznam užívateľovUžívateľské skupinyPrihlásenie

Share | 
 

 V peřině / V perine 3D (2011)

Zobraziť predchádzajúcu tému Zobraziť nasledujúcu tému Goto down 
AutorSpráva
aismen
Mega Uploader
Mega Uploader


Počet príspevkov : 703
Registration date : 16.04.2008

OdoslaťPredmet: V peřině / V perine 3D (2011)    Pi november 04, 2011 4:08 pm

V perine 3D
V perine
V peřině


Muzikál / Komedie
Česko, 2011, 103 min

CSFD

Režie:F. A. Brabec
Hrají:Lucie Bílá, Karel Roden, Amélie Pokorná, Matěj Převrátil, Bolek Polívka, Eliška Balzerová, Nina Divíšková, Arnošt Goldflam, Jiří Mádl, Anna Stropnická, Nikol Moravcová, Milan Šteindler, Marek Vašut, Tatiana Vilhelmová

Magický svět dobrých i zlých snů, který se ukrývá přímo v našich peřinách, ožije v muzikálové pohádce F. A. Brabce ve formátu 3D.
Na malebném náměstí stojí proti sobě dva domy. V jednom se nachází čistírna peří, v druhém má kabinet paní Hilda – vykladačka snů. Mezi nimi vládne nepřátelství na život a na smrt. Dědeček z čistírny nedávno objevil skrytý svět snů v peřinách a umí z nich zlé sny odfiltrovat. Vykladačka snů je díky tomu bez práce. Všem v okolí se zdají samé pěkné sny a s těmi se pro radu nechodí. A kdyby se něco ošklivého do spaní přece prodralo, stačí si dát peřinu vyčistit. Zlé sny skončí zamčené ve sklepení pod čistírnou. Ale jednoho dne děda záhadně zmizí. Celou rodinu z čistírny pak čeká dobrodružství, o kterém se nikomu ani nezdálo. Boj s paní Hildou a boj o sny a se samotnými sny vyvrcholí v magickém polštářovém světě přímo v peřinách.

INFO:
kód:
Format                          : AVI
Format/Info                      : Audio Video Interleave
File size                        : 946 MiB
Duration                        : 1h 41mn
Overall bit rate                : 1 302 Kbps
Writing application              : VirtualDubMod 1.5.10.2 (build 2540/release)
Writing library                  : VirtualDubMod build 2540/release

Video
ID                              : 0
Format                          : MPEG-4 Visual
Format profile                  : Advanced Simple@L5
Format settings, BVOP            : 1
Format settings, QPel            : No
Format settings, GMC            : No warppoints
Format settings, Matrix          : Custom
Codec ID                        : XVID
Codec ID/Hint                    : XviD
Duration                        : 1h 41mn
Bit rate                        : 1 164 Kbps
Width                            : 640 pixels
Height                          : 368 pixels
Display aspect ratio            : 16:9
Frame rate                      : 25.000 fps
Color space                      : YUV
Chroma subsampling              : 4:2:0
Bit depth                        : 8 bits
Scan type                        : Progressive
Compression mode                : Lossy
Bits/(Pixel*Frame)              : 0.198
Stream size                      : 846 MiB (89%)
Writing library                  : XviD 63

Audio
ID                              : 1
Format                          : MPEG Audio
Format version                  : Version 1
Format profile                  : Layer 3
Mode                            : Joint stereo
Codec ID                        : 55
Codec ID/Hint                    : MP3
Duration                        : 1h 41mn
Bit rate mode                    : Constant
Bit rate                        : 128 Kbps
Channel(s)                      : 2 channels
Sampling rate                    : 48.0 KHz
Compression mode                : Lossy
Delay relative to video          : 24ms
Stream size                      : 93.0 MiB (10%)
Alignment                        : Aligned on interleaves
Interleave, duration            : 40 ms (1.00 video frame)
Interleave, preload duration    : 504 ms

DOWNLOAD:
hellshare
kód:
http://download.hellshare.sk/v-perine-2011-dvdrip-xvid-cz-leaders-avi/3960912

euroshare
kód:
http://euroshare.eu/file/2143445/v-perine-2011-dvdrip-xvid-cz-leaders.avi

BEZ HESLA
Návrat hore Goto down
Zobrazit informácie o autorovi http://warnerfilm.forumn.org
 
V peřině / V perine 3D (2011)
Zobraziť predchádzajúcu tému Zobraziť nasledujúcu tému Návrat hore 
Strana 1 z 1

Povolenie tohoto fóra:Nemôžete odpovedať na témy v tomto fóre.
Vsetko zadarmo :: .::Download filmy::. :: .::Filmy s ceskym a slovenskym dabingom::.-
Prejdi na: