Vsetko zadarmo

Vsetko zadarmo
 
DomovFAQHľadaťRegistráciaZoznam užívateľovUžívateľské skupinyPrihlásenie

Share | 
 

 Harry Potter a Ohnivý Pohár / Goblet of Fire (2005)

Zobraziť predchádzajúcu tému Zobraziť nasledujúcu tému Goto down 
AutorSpráva
aismen
Mega Uploader
Mega Uploader


Počet príspevkov : 703
Registration date : 16.04.2008

OdoslaťPredmet: Harry Potter a Ohnivý Pohár / Goblet of Fire (2005)   Št november 03, 2011 6:57 pm

Harry Potter a Ohnivá čaša
Harry Potter and the Goblet of Fire
Harry Potter a Ohnivý pohár


Dobrodružný / Drama / Rodinný / Fantasy
Velká Británie / USA, 2005, 157 min

CSFD

Režie:Mike Newell
Hudba:Patrick Doyle
Hrají:Daniel Radcliffe, Emma Watson, Rupert Grint, Robbie Coltrane, Tom Felton, Michael Gambon, Brendan Gleeson, Jason Isaacs, Alan Rickman, Maggie Smith, Stanislav Ianevski, Predrag Bjelac, Katie Leung, Matthew Lewis, David Tennant, Mark Williams, Timothy Spall, Robert Hardy, Shirley Henderson, Clémence Poésy, Jeff Rawle, Ralph Fiennes, Miranda Richardson, Gary Oldman, Warwick Davis, Frances de la Tour, Geraldine Somerville, Robert Pattinson, Bonnie Wright, Louis Doyle, James Phelps, Oliver Phelps, David Bradley, Roger Lloyd - Pack, Adrian Rawlins, Eric Sykes, Alex Palmer, Jamie Waylett, Devon Murray, Josh Herdman, Alfie Enoch, Jonny Greenwood, Afshan Azad, Shefali Chowdhury, William Melling

Harryho štvrtý rok na Rockfortskej škole sa celý krúti okolo turnaja, v ktorom sa stretnú študenti troch čarodejníckych škôl v sérii stále náročnejších úloh. Súťažiaci sú vyberaní ohnivou čašou, ktorá tentoraz z Rockfortu vyberie aj Harryho! A aby to všetko nebolo také jednoduché, začína sa hlásiť o slovo aj Voldemort, ktorý je opäť pripravený vrátiť sa!

INFO:
kód:
Format                          : AVI
Format/Info                      : Audio Video Interleave
File size                        : 701 MiB
Duration                        : 2h 17mn
Overall bit rate                : 710 Kbps

Video
ID                              : 0
Format                          : MPEG-4 Visual
Format profile                  : Advanced Simple@L5
Format settings, BVOP            : 2
Format settings, QPel            : No
Format settings, GMC            : No warppoints
Format settings, Matrix          : Default (H.263)
Muxing mode                      : Packed bitstream
Codec ID                        : XVID
Codec ID/Hint                    : XviD
Duration                        : 2h 17mn
Bit rate                        : 589 Kbps
Width                            : 640 pixels
Height                          : 260 pixels
Display aspect ratio            : 2.462
Frame rate                      : 25.000 fps
Color space                      : YUV
Chroma subsampling              : 4:2:0
Bit depth                        : 8 bits
Scan type                        : Progressive
Compression mode                : Lossy
Bits/(Pixel*Frame)              : 0.142
Stream size                      : 580 MiB (83%)
Writing library                  : XviD 1.1.2 (UTC 2006-11-01)

Audio
ID                              : 1
Format                          : MPEG Audio
Format version                  : Version 1
Format profile                  : Layer 3
Codec ID                        : 55
Codec ID/Hint                    : MP3
Duration                        : 2h 17mn
Bit rate mode                    : Constant
Bit rate                        : 112 Kbps
Channel(s)                      : 2 channels
Sampling rate                    : 48.0 KHz
Compression mode                : Lossy
Delay relative to video          : 24ms
Stream size                      : 110 MiB (16%)
Alignment                        : Split accross interleaves
Interleave, duration            : 40 ms (1.00 video frame)
Title                            : Audio Stream
Writing library                  : LAME3.92

DOWNLOAD:
hellshare
kód:
http://download.hellshare.sk/harry-potter-a-ohnivy-pohar-2005-avi/3930950

euroshare
kód:
http://euroshare.eu/file/2098295/harry_potter_a_ohnivy_pohar_2005.avi

BEZ HESLA
Návrat hore Goto down
Zobrazit informácie o autorovi http://warnerfilm.forumn.org
 
Harry Potter a Ohnivý Pohár / Goblet of Fire (2005)
Zobraziť predchádzajúcu tému Zobraziť nasledujúcu tému Návrat hore 
Strana 1 z 1

Povolenie tohoto fóra:Nemôžete odpovedať na témy v tomto fóre.
Vsetko zadarmo :: .::Download filmy::. :: .::Filmy s ceskym a slovenskym dabingom::.-
Prejdi na: