Vsetko zadarmo

Vsetko zadarmo
 
DomovFAQHľadaťRegistráciaZoznam užívateľovUžívateľské skupinyPrihlásenie

Share | 
 

 Sucker Punch (2011)

Zobraziť predchádzajúcu tému Zobraziť nasledujúcu tému Goto down 
AutorSpráva
aismen
Mega Uploader
Mega Uploader


Počet príspevkov : 703
Registration date : 16.04.2008

OdoslaťPredmet: Sucker Punch (2011)   St november 02, 2011 8:59 pm

Sucker Punch
Sucker Punch
Sucker Punch


Akční / Fantasy / Thriller / Dobrodružný
USA / Kanada, 2011, 110 min (Director's cut: 127 min)

CSFD

Režie:Zack Snyder
Hudba:Tyler Bates
Hrají:Emily Browning, Abbie Cornish, Jena Malone, Vanessa Anne Hudgens, Jamie Chung, Carla Gugino, Oscar Isaac, Jon Hamm, Scott Glenn, Gerard Plunkett

Epická akční fantasy podívaná nás zavede do smyšleného světa mladé dívky, jejíž snový svět poskytuje únik z temné reality. Nelimitovaná hranicemi času a prostoru může jít kamkoli si její mysl zamane. Jenže neuvěřitelná dobrodružství jaksi smazávají hranice mezi skutečností a fantazií... s možná tragickými následky.

INFO:
kód:
Format                          : AVI
Format/Info                      : Audio Video Interleave
File size                        : 702 MiB
Duration                        : 1h 49mn
Overall bit rate                : 894 Kbps
Writing application              : VirtualDubMod 1.5.10.2 (build 2540/release)
Writing library                  : VirtualDubMod build 2540/release

Video
ID                              : 0
Format                          : MPEG-4 Visual
Format profile                  : Advanced Simple@L5
Format settings, BVOP            : 2
Format settings, QPel            : No
Format settings, GMC            : No warppoints
Format settings, Matrix          : Default (H.263)
Codec ID                        : XVID
Codec ID/Hint                    : XviD
Duration                        : 1h 49mn
Bit rate                        : 757 Kbps
Width                            : 624 pixels
Height                          : 256 pixels
Display aspect ratio            : 2.40:1
Frame rate                      : 23.976 fps
Color space                      : YUV
Chroma subsampling              : 4:2:0
Bit depth                        : 8 bits
Scan type                        : Progressive
Compression mode                : Lossy
Bits/(Pixel*Frame)              : 0.198
Stream size                      : 594 MiB (85%)
Writing library                  : XviD 1.2.1 (UTC 2008-12-04)

Audio
ID                              : 1
Format                          : MPEG Audio
Format version                  : Version 1
Format profile                  : Layer 3
Mode                            : Joint stereo
Mode extension                  : MS Stereo
Codec ID                        : 55
Codec ID/Hint                    : MP3
Duration                        : 1h 49mn
Bit rate mode                    : Constant
Bit rate                        : 128 Kbps
Channel(s)                      : 2 channels
Sampling rate                    : 48.0 KHz
Compression mode                : Lossy
Delay relative to video          : 24ms
Stream size                      : 100 MiB (14%)
Alignment                        : Aligned on interleaves
Interleave, duration            : 42 ms (1.00 video frame)
Interleave, preload duration    : 504 ms

DOWNLOAD:
hellshare
kód:
http://download.hellshare.sk/sucker-punch-2011-avi/3948396

euroshare
kód:
http://euroshare.eu/file/2122403/sucker_punch_2011.avi

BEZ HESLA
Návrat hore Goto down
Zobrazit informácie o autorovi http://warnerfilm.forumn.org
 
Sucker Punch (2011)
Zobraziť predchádzajúcu tému Zobraziť nasledujúcu tému Návrat hore 
Strana 1 z 1

Povolenie tohoto fóra:Nemôžete odpovedať na témy v tomto fóre.
Vsetko zadarmo :: .::Download filmy::. :: .::Filmy s ceskym a slovenskym dabingom::.-
Prejdi na: