Vsetko zadarmo

Vsetko zadarmo
 
DomovFAQHľadaťRegistráciaZoznam užívateľovUžívateľské skupinyPrihlásenie

Share | 
 

 The Change-Up (2011)

Zobraziť predchádzajúcu tému Zobraziť nasledujúcu tému Goto down 
AutorSpráva
aismen
Mega Uploader
Mega Uploader


Počet príspevkov : 703
Registration date : 16.04.2008

OdoslaťPredmet: The Change-Up (2011)   Ut november 01, 2011 5:37 pm

Change-Up, The

Komedie
USA, 2011, 118 min

CSFD

Režie:David Dobkin
Hudba:John Debney, Theodore Shapiro
Hrají:Ryan Reynolds, Jason Bateman, Leslie Mann, Olivia Wilde, Alan Arkin, Mircea Monroe, Ed Ackerman, TJ Hassan

Mitch a Dave byli nerozluční přátelé. Jak ale léta ubíhala, jejich světy se od sebe čím dál více vzdalovaly. Zatímco Dave je přepracovaný právník, manžel a otec tří dětí, Mitch zůstal svobodným mužem bez kariéry. A jak už to tak bývá, oba by si přáli život toho druhého. Mitch by chtěl pěknou ženu, děti které ho obdivují a vysoce placenou práci v prestižní firmě. Davovým snem je naopak život bez stresu, závazků nebo následků. Po propité noci se jim jejich přání splní a oba se probudí v těle toho druhého. Záhy ale zjistí, že nic není tak růžové, jak se na první pohled zdá a budou se muset hodně snažit, aby si navzájem své životy úplně nezničili.

INFO:
kód:
Format                          : AVI
Format/Info                      : Audio Video Interleave
File size                        : 700 MiB
Duration                        : 1h 58mn
Overall bit rate                : 828 Kbps

Video
ID                              : 0
Format                          : MPEG-4 Visual
Format profile                  : Advanced Simple@L5
Format settings, BVOP            : 2
Format settings, QPel            : No
Format settings, GMC            : No warppoints
Format settings, Matrix          : Default (H.263)
Codec ID                        : XVID
Codec ID/Hint                    : XviD
Duration                        : 1h 58mn
Bit rate                        : 706 Kbps
Width                            : 608 pixels
Height                          : 256 pixels
Display aspect ratio            : 2.40:1
Frame rate                      : 23.976 fps
Color space                      : YUV
Chroma subsampling              : 4:2:0
Bit depth                        : 8 bits
Scan type                        : Progressive
Compression mode                : Lossy
Bits/(Pixel*Frame)              : 0.189
Stream size                      : 597 MiB (85%)
Writing library                  : XviD 1.2.1 (UTC 2008-12-04)

Audio
ID                              : 1
Format                          : MPEG Audio
Format version                  : Version 1
Format profile                  : Layer 3
Mode                            : Joint stereo
Mode extension                  : MS Stereo
Codec ID                        : 55
Codec ID/Hint                    : MP3
Duration                        : 1h 58mn
Bit rate mode                    : Variable
Bit rate                        : 110 Kbps
Nominal bit rate                : 128 Kbps
Channel(s)                      : 2 channels
Sampling rate                    : 48.0 KHz
Compression mode                : Lossy
Stream size                      : 92.9 MiB (13%)
Alignment                        : Aligned on interleaves
Interleave, duration            : 24 ms (0.58 video frame)
Interleave, preload duration    : 76 ms
Title                            : T2_Audio - 5.1 channels
Writing library                  : LAME3.98r
Encoding settings                : -m j -V 4 -q 2 -lowpass 17 --abr 128

DOWNLOAD:
hellshare
kód:
http://download.hellshare.sk/the-change-up-majors-eng-avi/3939290

euroshare
kód:
http://euroshare.eu/file/2109003/the_change_up.majors_eng.avi

BEZ HESLA
Návrat hore Goto down
Zobrazit informácie o autorovi http://warnerfilm.forumn.org
 
The Change-Up (2011)
Zobraziť predchádzajúcu tému Zobraziť nasledujúcu tému Návrat hore 
Strana 1 z 1

Povolenie tohoto fóra:Nemôžete odpovedať na témy v tomto fóre.
Vsetko zadarmo :: .::Download filmy::. :: .::Zahranicna tvorba::.-
Prejdi na: