Vsetko zadarmo

Vsetko zadarmo
 
DomovFAQHľadaťRegistráciaZoznam užívateľovUžívateľské skupinyPrihlásenie

Share | 
 

 Honey 2 (2011)

Zobraziť predchádzajúcu tému Zobraziť nasledujúcu tému Goto down 
AutorSpráva
aismen
Mega Uploader
Mega Uploader


Počet príspevkov : 703
Registration date : 16.04.2008

OdoslaťPredmet: Honey 2 (2011)   Ut november 01, 2011 3:54 am

Honey 2
Honey 2


Komedie / Drama / Muzikál
USA, 2011, 106 min

CSFD

Režie:Bille Woodruff
Hrají:Katerina Graham, Gerry Bednob, Seychelle Gabriel, Mario López, Lonette McKee, Audrina Patridge, Melissa Molinaro, Randy Wayne, Brandon Molale

Maria se po nedobrovolném pobytu ve vězení pro mladistvé vrací do drsného prostředí Bronxu. Tady chce prostřednictvím svého tanečního talentu a obrovské ctižádosti konečně změnit svůj život. Celé své srdce i duši obětuje tanci a spolu se svou taneční skupinou se začíná připravovat na televizní taneční soutěž “Tancuj, nebo zemři”. Podobně jako Honey před ní, i Maria objevuje vzrušení z tance, když si uvědomuje, kdo opravdu je a kam patří.

INFO:
kód:
Format                          : AVI
Format/Info                      : Audio Video Interleave
File size                        : 705 MiB
Duration                        : 1h 50mn
Overall bit rate                : 891 Kbps
Writing application              : VirtualDubMod 1.5.10.2 (build 2540/release)
Writing library                  : VirtualDubMod build 2540/release

Video
ID                              : 0
Format                          : MPEG-4 Visual
Format profile                  : Advanced Simple@L5
Format settings, BVOP            : 2
Format settings, QPel            : No
Format settings, GMC            : No warppoints
Format settings, Matrix          : Default (H.263)
Codec ID                        : XVID
Codec ID/Hint                    : XviD
Duration                        : 1h 50mn
Bit rate                        : 754 Kbps
Width                            : 640 pixels
Height                          : 360 pixels
Display aspect ratio            : 16:9
Frame rate                      : 23.976 fps
Color space                      : YUV
Chroma subsampling              : 4:2:0
Bit depth                        : 8 bits
Scan type                        : Progressive
Compression mode                : Lossy
Bits/(Pixel*Frame)              : 0.136
Stream size                      : 597 MiB (85%)
Writing library                  : XviD 1.2.1 (UTC 2008-12-04)

Audio
ID                              : 1
Format                          : MPEG Audio
Format version                  : Version 1
Format profile                  : Layer 3
Mode                            : Joint stereo
Mode extension                  : MS Stereo
Codec ID                        : 55
Codec ID/Hint                    : MP3
Duration                        : 1h 50mn
Bit rate mode                    : Constant
Bit rate                        : 128 Kbps
Channel(s)                      : 2 channels
Sampling rate                    : 48.0 KHz
Compression mode                : Lossy
Delay relative to video          : 24ms
Stream size                      : 101 MiB (14%)
Alignment                        : Aligned on interleaves
Interleave, duration            : 42 ms (1.00 video frame)
Interleave, preload duration    : 504 ms

DOWNLOAD:
hellshare
kód:
http://download.hellshare.sk/honey-2-2011-avi/3932376

euroshare
kód:
http://euroshare.eu/file/2100592/honey_2_2011.avi

BEZ HESLA
Návrat hore Goto down
Zobrazit informácie o autorovi http://warnerfilm.forumn.org
 
Honey 2 (2011)
Zobraziť predchádzajúcu tému Zobraziť nasledujúcu tému Návrat hore 
Strana 1 z 1

Povolenie tohoto fóra:Nemôžete odpovedať na témy v tomto fóre.
Vsetko zadarmo :: .::Download filmy::. :: .::Filmy s ceskym a slovenskym dabingom::.-
Prejdi na: