Vsetko zadarmo

Vsetko zadarmo
 
DomovFAQHľadaťRegistráciaZoznam užívateľovUžívateľské skupinyPrihlásenie

Share | 
 

 Bílý Elephant / Elephant White / 2011

Zobraziť predchádzajúcu tému Zobraziť nasledujúcu tému Goto down 
AutorSpráva
aismen
Mega Uploader
Mega Uploader


Počet príspevkov : 703
Registration date : 16.04.2008

OdoslaťPredmet: Bílý Elephant / Elephant White / 2011   Ut november 01, 2011 3:47 am

Elephant White
Bílý Elephant


Akční / Thriller
USA, 2011

CSFD

Režie:Prachya Pinkaew
Hrají:Djimon Hounsou, Kevin Bacon

Sám proti novodobým otrokářům v Thajsku. Chladnokrevného nájemného zabijáka Curtieho Churche v Bangkoku osloví neznámý zákazník, který mu dobře zaplatí, když zlikviduje členy gangu provozujícího obchod s mladými děvčaty. Kdysi prý unesli jeho dceru a přinutili ji k prostituci. Pro Churche je to práce jako každá jiná, brzy však zjistí, že celá věc je náročnější, než se původně domníval. Zastavit se však už neumí a za svým cílem jde bez milosti, jako by najednou nesnesl pomyšlení, že je ubližováno nevinným. Snad to způsobila i mladičká prostitutka Mae, která ho na jeho nebezpečné misi doprovází. Když dívka beze stopy zmizí a Curtie se ji snaží znovu najít, je šokován pravdou o jejím osudu.

INFO:
kód:
Format                          : AVI
Format/Info                      : Audio Video Interleave
File size                        : 1.44 GiB
Duration                        : 1h 31mn
Overall bit rate                : 2 246 Kbps
Writing application              : VirtualDubMod 1.5.10.2 (build 2540/release)
Writing library                  : VirtualDubMod build 2540/release

Video
ID                              : 0
Format                          : MPEG-4 Visual
Format profile                  : Advanced Simple@L5
Format settings, BVOP            : 3
Format settings, QPel            : No
Format settings, GMC            : No warppoints
Format settings, Matrix          : Default (MPEG)
Codec ID                        : XVID
Codec ID/Hint                    : XviD
Duration                        : 1h 31mn
Bit rate                        : 1 789 Kbps
Width                            : 720 pixels
Height                          : 304 pixels
Display aspect ratio            : 2.35:1
Frame rate                      : 23.976 fps
Color space                      : YUV
Chroma subsampling              : 4:2:0
Bit depth                        : 8 bits
Scan type                        : Progressive
Compression mode                : Lossy
Bits/(Pixel*Frame)              : 0.341
Stream size                      : 1.14 GiB (80%)
Writing library                  : XviD 62

Audio
ID                              : 1
Format                          : AC-3
Format/Info                      : Audio Coding 3
Mode extension                  : CM (complete main)
Codec ID                        : 2000
Duration                        : 1h 31mn
Bit rate mode                    : Constant
Bit rate                        : 448 Kbps
Channel(s)                      : 6 channels
Channel positions                : Front: L C R, Side: L R, LFE
Sampling rate                    : 48.0 KHz
Bit depth                        : 16 bits
Compression mode                : Lossy
Stream size                      : 293 MiB (20%)
Alignment                        : Split accross interleaves
Interleave, duration            : 42 ms (1.00 video frame)
Interleave, preload duration    : 500 ms

DOWNLOAD:
hellshare
kód:
http://download.hellshare.sk/bily-elephant-2011-avi/3931953

euroshare
kód:
http://euroshare.eu/file/2100339/bily_elephant_2011.avi

BEZ HESLA
Návrat hore Goto down
Zobrazit informácie o autorovi http://warnerfilm.forumn.org
 
Bílý Elephant / Elephant White / 2011
Zobraziť predchádzajúcu tému Zobraziť nasledujúcu tému Návrat hore 
Strana 1 z 1

Povolenie tohoto fóra:Nemôžete odpovedať na témy v tomto fóre.
Vsetko zadarmo :: .::Download filmy::. :: .::Filmy s ceskym a slovenskym dabingom::.-
Prejdi na: