Vsetko zadarmo

Vsetko zadarmo
 
DomovFAQHľadaťRegistráciaZoznam užívateľovUžívateľské skupinyPrihlásenie

Share | 
 

 Simpsonovi - Příliš drsný pro TV / The Simpsons Too Hot For

Zobraziť predchádzajúcu tému Zobraziť nasledujúcu tému Goto down 
AutorSpráva
aismen
Mega Uploader
Mega Uploader


Počet príspevkov : 703
Registration date : 16.04.2008

OdoslaťPredmet: Simpsonovi - Příliš drsný pro TV / The Simpsons Too Hot For    Po október 31, 2011 7:35 pm

Simpsons Too Hot For TV, The (video film)
Simpsonovi: Příliš drsný pro TV


Animovaný / Komedie
USA, 1998, 88 min

CSFD

Hrají:Hank Azaria, Dan Castellaneta, Julie Kavner, Nancy Cartwright, Yeardley Smith, Harry Shearer, Jerry Springer, Phil Hartman, Tress MacNeille, Marcia Wallace, Robert Englund

1. příběh (Speciální čarodějnický díl IX): Příběh Halloweenský, ve kterém si každý člen rodiny Simpsonů dost užije...
2. příběh (Pistolníkova rodina): Aby zabezpečil klidný spánek rodiny, koupí si Homer zbraň. Problém je, že se do ní zamiluje a začne zanedbávat rodinu...
3. příběh (Rození líbači): Homer a Marge mají výročí svatby. Když ho ale chtějí patřičně oslavit, zjistí, že vzrušení z jejich vztahu kamsi vyprchalo...
4. příběh (Dědeček vs. sexuální ochablost): Homerův otec se již nemohl dívat na synův chabý sexuální život, a tak zalovil v paměti a podle receptu svého otce vytvořil elixír, který z muže dělá opravdového chlapáka...


INFO:
kód:
Format                          : AVI
Format/Info                      : Audio Video Interleave
File size                        : 700 MiB
Duration                        : 1h 27mn
Overall bit rate                : 1 120 Kbps
Writing application              : VirtualDubMod 1.5.4.1 (build 2178/release)
Writing library                  : VirtualDubMod build 2178/release

Video
ID                              : 0
Format                          : MPEG-4 Visual
Format profile                  : Advanced Simple@L5
Format settings, BVOP            : 1
Format settings, QPel            : No
Format settings, GMC            : No warppoints
Format settings, Matrix          : Custom
Codec ID                        : XVID
Codec ID/Hint                    : XviD
Duration                        : 1h 27mn
Bit rate                        : 885 Kbps
Width                            : 512 pixels
Height                          : 384 pixels
Display aspect ratio            : 4:3
Frame rate                      : 25.000 fps
Color space                      : YUV
Chroma subsampling              : 4:2:0
Bit depth                        : 8 bits
Scan type                        : Progressive
Compression mode                : Lossy
Bits/(Pixel*Frame)              : 0.180
Stream size                      : 553 MiB (79%)
Writing library                  : XviD 1.2.1 (UTC 2008-12-04)

Audio #1
ID                              : 1
Format                          : MPEG Audio
Format version                  : Version 1
Format profile                  : Layer 3
Mode                            : Joint stereo
Mode extension                  : MS Stereo
Codec ID                        : 55
Codec ID/Hint                    : MP3
Duration                        : 1h 27mn
Bit rate mode                    : Variable
Bit rate                        : 103 Kbps
Nominal bit rate                : 128 Kbps
Channel(s)                      : 2 channels
Sampling rate                    : 48.0 KHz
Compression mode                : Lossy
Stream size                      : 64.6 MiB (9%)
Alignment                        : Aligned on interleaves
Interleave, duration            : 24 ms (0.60 video frame)
Interleave, preload duration    : 178 ms
Writing library                  : LAME3.98r
Encoding settings                : -m j -V 4 -q 2 -lowpass 17 --abr 128

Audio #2
ID                              : 2
Format                          : MPEG Audio
Format version                  : Version 1
Format profile                  : Layer 3
Mode                            : Joint stereo
Mode extension                  : MS Stereo
Codec ID                        : 55
Codec ID/Hint                    : MP3
Duration                        : 1h 27mn
Bit rate mode                    : Variable
Bit rate                        : 110 Kbps
Nominal bit rate                : 128 Kbps
Channel(s)                      : 2 channels
Sampling rate                    : 48.0 KHz
Compression mode                : Lossy
Stream size                      : 69.0 MiB (10%)
Alignment                        : Aligned on interleaves
Interleave, duration            : 24 ms (0.60 video frame)
Interleave, preload duration    : 167 ms
Writing library                  : LAME3.98r
Encoding settings                : -m j -V 4 -q 2 -lowpass 17 --abr 128

DOWNLOAD:
hellshare
kód:
http://download.hellshare.sk/simpsonovi-prilis-drsny-pro-tv-cz-1998-avi/3929420

euroshare
kód:
http://euroshare.eu/file/2096800/simpsonovi-prilis-drsny-pro-tv-cz-1998.avi

BEZ HESLA
Návrat hore Goto down
Zobrazit informácie o autorovi http://warnerfilm.forumn.org
 
Simpsonovi - Příliš drsný pro TV / The Simpsons Too Hot For
Zobraziť predchádzajúcu tému Zobraziť nasledujúcu tému Návrat hore 
Strana 1 z 1

Povolenie tohoto fóra:Nemôžete odpovedať na témy v tomto fóre.
Vsetko zadarmo :: .::Download filmy::. :: .::Filmy s ceskym a slovenskym dabingom::.-
Prejdi na: