Vsetko zadarmo

Vsetko zadarmo
 
DomovFAQHľadaťRegistráciaZoznam užívateľovUžívateľské skupinyPrihlásenie

Share | 
 

 Horrible Bosses (2011) HD

Zobraziť predchádzajúcu tému Zobraziť nasledujúcu tému Goto down 
AutorSpráva
aismen
Mega Uploader
Mega Uploader


Počet príspevkov : 703
Registration date : 16.04.2008

OdoslaťPredmet: Horrible Bosses (2011) HD   Po október 31, 2011 7:28 pm

Šéfovia na zabitie
Horrible Bosses
Šéfové na zabití


Komedie / Krimi
USA, 2011, 98 min (SE: 106 min)

CSFD

Režie:Seth Gordon
Hudba:Christopher Lennertz
Hrají:Jason Bateman, Charlie Day, Jason Sudeikis, Kevin Spacey, Jennifer Aniston, Colin Farrell, Julie Bowen, John Francis Daley, Jamie Foxx, Donald Sutherland, Lindsay Sloane, Meghan Markle, Ioan Gruffudd, Steve Wiebe, Dave Sheridan, Chad Coleman, Wendell Pierce, Bob Newhart, Seth Gordon

Jediná věc, která by udělala Nickovi, Kurtovi a Daleovi denní dřinu v práci snesitelnou, by byla rozdrtit jejich netolerantní šéfy na prach. Podat výpověď je bohužel nemožné, takže s podporou více než malého množství drinků a pár pochybných rad od bývalého trestance si tři kamarádi vymyslí komplikovaný a zdánlivě „blbuvzdorný“ plán, jak se navždy zbavit svých nadřízených. Je tu však jeden problém. I ten nejlepší plán je vždy jen tak spolehlivý jako mozek, který ho vymyslel ...

INFO:
kód:
Format                          : Matroska
Format version                  : Version 2
File size                        : 2.92 GiB
Duration                        : 1h 37mn
Overall bit rate                : 4 272 Kbps
Movie name                      : Horrible.Bosses.2011.THEATRiCAL.CUT.720p.BRRip.XviD.AC3.CZ-D4rR
Encoded date                    : UTC 2011-10-29 18:06:22
Writing application              : mkvmerge v4.9.1 ('Ich will') built on Jul 11 2011 23:53:15
Writing library                  : libebml v1.2.1 + libmatroska v1.1.1

Video
ID                              : 1
Format                          : MPEG-4 Visual
Format profile                  : Advanced Simple@L5
Format settings, BVOP            : Yes
Format settings, QPel            : No
Format settings, GMC            : No warppoints
Format settings, Matrix          : Custom
Codec ID                        : XVID
Codec ID/Hint                    : XviD
Duration                        : 1h 37mn
Bit rate                        : 3 547 Kbps
Width                            : 1 280 pixels
Height                          : 534 pixels
Display aspect ratio            : 2.40:1
Frame rate                      : 23.976 fps
Color space                      : YUV
Chroma subsampling              : 4:2:0
Bit depth                        : 8 bits
Scan type                        : Progressive
Compression mode                : Lossy
Bits/(Pixel*Frame)              : 0.216
Stream size                      : 2.42 GiB (83%)
Title                            : Horrible.Bosses.2011.THEATRiCAL.CUT.720p.BRRip.XviD.AC3.CZ-D4rR
Writing library                  : XviD 1.2.1 (UTC 2008-12-04)
Language                        : Czech

Audio
ID                              : 2
Format                          : AC-3
Format/Info                      : Audio Coding 3
Mode extension                  : CM (complete main)
Muxing mode                      : Header stripping
Codec ID                        : A_AC3
Duration                        : 1h 37mn
Bit rate mode                    : Constant
Bit rate                        : 640 Kbps
Channel(s)                      : 6 channels
Channel positions                : Front: L C R, Side: L R, LFE
Sampling rate                    : 48.0 KHz
Bit depth                        : 16 bits
Compression mode                : Lossy
Stream size                      : 447 MiB (15%)
Title                            : AC-3 5.1 @ 640 Kbps
Language                        : Czech

DOWNLOAD:
hellshare
kód:
http://download.hellshare.sk/sefove-na-zabiti-2011-part1-rar/3927898
http://download.hellshare.sk/sefove-na-zabiti-2011-part2-rar/3928125
http://download.hellshare.sk/sefove-na-zabiti-2011-part3-rar/3928410
http://download.hellshare.sk/sefove-na-zabiti-2011-part4-rar/3928734
http://download.hellshare.sk/sefove-na-zabiti-2011-part5-rar/3928865

euroshare
kód:
http://euroshare.eu/file/2095073/fove_na_zabiti_2011.part1.rar
http://euroshare.eu/file/2095298/fove_na_zabiti_2011.part2.rar
http://euroshare.eu/file/2095527/fove_na_zabiti_2011.part3.rar
http://euroshare.eu/file/2095759/fove_na_zabiti_2011.part4.rar
http://euroshare.eu/file/2095821/fove_na_zabiti_2011.part5.rar

Upnito
kód:
http://www.upnito.sk/subor/0302bedcc8dfa98f9f30d79ee044c081.html
http://www.upnito.sk/subor/93f6d3d3a8ecdaf63a04f4de423a3bf2.html
http://www.upnito.sk/subor/6fb0dc2723f26befdc4415395fbd7785.html
http://www.upnito.sk/subor/fd0c364760a9004270ea2d8ee001a84f.html
http://www.upnito.sk/subor/3f9fb37e82337fc4cb0e2bf5c705724f.html


BEZ HESLA
Návrat hore Goto down
Zobrazit informácie o autorovi http://warnerfilm.forumn.org
 
Horrible Bosses (2011) HD
Zobraziť predchádzajúcu tému Zobraziť nasledujúcu tému Návrat hore 
Strana 1 z 1

Povolenie tohoto fóra:Nemôžete odpovedať na témy v tomto fóre.
Vsetko zadarmo :: .::Download filmy::. :: .::Filmy s ceskym a slovenskym dabingom::.-
Prejdi na: