Vsetko zadarmo

Vsetko zadarmo
 
DomovFAQHľadaťRegistráciaZoznam užívateľovUžívateľské skupinyPrihlásenie

Share | 
 

 Holičstvo /Barbershop(2002)

Zobraziť predchádzajúcu tému Zobraziť nasledujúcu tému Goto down 
AutorSpráva
aismen
Mega Uploader
Mega Uploader


Počet príspevkov : 703
Registration date : 16.04.2008

OdoslaťPredmet: Holičstvo /Barbershop(2002)   So október 29, 2011 10:05 pm

Holičstvo
Barbershop
Holičství


Komedie / Drama
USA, 2002, 102 min

CSFD

Režie:Tim Story
Hudba:Terence Blanchard
Hrají:Ice Cube, Anthony Anderson, Cedric the Entertainer, Sean Patrick Thomas, Eve, Troy Garity, Michael Ealy, Keith David, Carl Wright, Jason Winston George, Tom Wright, Jazsmin Lewis, Janina Gavankar, Maestro Harrell, Dana Goodman

Komedie, která popisuje jeden den ze života v holičství v jižní části Chicaga. Calvin (Ice Cube), který zdědil holičství po svém otci, v něm vidí pouze zátěž a ztrátu času. Teprve když ho prodá, začíná pomalu chápat otcův pohled a pokouší se holičství získat zpět. V hlavních rolích Ice Cube (Tři králové, Anakonda) a Anthony Anderson (Od kolébky k hrobu).

INFO:
kód:
Format                          : AVI
Format/Info                      : Audio Video Interleave
File size                        : 1.31 GiB
Duration                        : 1h 37mn
Overall bit rate                : 1 914 Kbps

Video
ID                              : 0
Format                          : MPEG-4 Visual
Format profile                  : Advanced Simple@L5
Format settings, BVOP            : 2
Format settings, QPel            : No
Format settings, GMC            : No warppoints
Format settings, Matrix          : Default (H.263)
Codec ID                        : DIVX
Codec ID/Info                    : Project Mayo
Codec ID/Hint                    : DivX 4
Duration                        : 1h 37mn
Bit rate                        : 1 712 Kbps
Width                            : 720 pixels
Height                          : 408 pixels
Display aspect ratio            : 16:9
Frame rate                      : 25.000 fps
Color space                      : YUV
Chroma subsampling              : 4:2:0
Bit depth                        : 8 bits
Scan type                        : Progressive
Compression mode                : Lossy
Bits/(Pixel*Frame)              : 0.233
Stream size                      : 1.17 GiB (89%)
Writing library                  : XviD 1.2.1 (UTC 2008-12-04)

Audio
ID                              : 1
Format                          : AC-3
Format/Info                      : Audio Coding 3
Mode extension                  : CM (complete main)
Codec ID                        : 2000
Duration                        : 1h 37mn
Bit rate mode                    : Constant
Bit rate                        : 192 Kbps
Channel(s)                      : 2 channels
Channel positions                : Front: L R
Sampling rate                    : 48.0 KHz
Bit depth                        : 16 bits
Compression mode                : Lossy
Stream size                      : 134 MiB (10%)
Alignment                        : Aligned on interleaves
Interleave, duration            : 40 ms (1.00 video frame)

DOWNLOAD:
hellshare
kód:
http://download.hellshare.sk/holicstvi-1-avi/3910370

euroshare
kód:
http://euroshare.eu/file/2045971/holicstvi_1.avi

BEZ HESLA
Návrat hore Goto down
Zobrazit informácie o autorovi http://warnerfilm.forumn.org
 
Holičstvo /Barbershop(2002)
Zobraziť predchádzajúcu tému Zobraziť nasledujúcu tému Návrat hore 
Strana 1 z 1

Povolenie tohoto fóra:Nemôžete odpovedať na témy v tomto fóre.
Vsetko zadarmo :: .::Download filmy::. :: .::Filmy s ceskym a slovenskym dabingom::.-
Prejdi na: