Vsetko zadarmo

Vsetko zadarmo
 
DomovFAQHľadaťRegistráciaZoznam užívateľovUžívateľské skupinyPrihlásenie

Share | 
 

 Legendárna päsť / Legend of the Fist: The Return ... (2010)

Zobraziť predchádzajúcu tému Zobraziť nasledujúcu tému Goto down 
AutorSpráva
aismen
Mega Uploader
Mega Uploader


Počet príspevkov : 703
Registration date : 16.04.2008

OdoslaťPredmet: Legendárna päsť / Legend of the Fist: The Return ... (2010)    So október 29, 2011 4:32 pm

Legendárna päsť
Jing mo fung wan: Chen Zhen
Ye xing xia Chen Zhen
Návrat Chen Zhena
Legend of the Fist: The Return of Chen Zhen


Akční / Drama / Historický
Hong Kong / Čína, 2010, 105 min

CSFD

Režie:Wai Keung Lau
Hrají:Donnie Yen, Andy On, Akihito Yagi, Qi Shu, Yasuaki Kurata, Ryu Kohata, Anthony Wong Chau-Sang, Siyan Huo

V prvých desaťročiach minulého storočia Čína prežívala ťažké obdobie – veľké územia obsadili japonskí okupanti. Vojnový hrdina Chen Zhen mal byť zastrelený za to, že bol zodpovedný za smrť učiteľa a otca japonského plukovníka v okupovanom Šanghaji. Všetci ho považujú za mŕtveho, ale po siedmich rokoch zo zahraničia príde tajomný cudzinec, ktorý sa spriatelí so šéfom miestnej mafie. V skutočnosti je to maskovaný Chen Zhen, ktorý má v úmysle preniknúť medzi ľudí, čo sú v spojenectve s Japoncami. Ako maskovaný nočný bojovník má v úmysle dostať všetkých, ktorí sa podieľali na vražednom zozname vypracovanom Japoncami...

INFO:
kód:
Format                          : AVI
Format/Info                      : Audio Video Interleave
File size                        : 1.32 GiB
Duration                        : 1h 44mn
Overall bit rate                : 1 799 Kbps
Director                        : djone - Snf
Writing application              : VirtualDubMod 1.5.10.3 | www.virtualdub-fr.org || (build 2550/release)
Writing library                  : VirtualDubMod build 2550/release

Video
ID                              : 0
Format                          : MPEG-4 Visual
Format profile                  : Advanced Simple@L5
Format settings, BVOP            : 1
Format settings, QPel            : No
Format settings, GMC            : No warppoints
Format settings, Matrix          : Custom
Muxing mode                      : Packed bitstream
Codec ID                        : XVID
Codec ID/Hint                    : XviD
Duration                        : 1h 44mn
Bit rate                        : 1 531 Kbps
Width                            : 720 pixels
Height                          : 304 pixels
Display aspect ratio            : 2.35:1
Frame rate                      : 29.970 fps
Color space                      : YUV
Chroma subsampling              : 4:2:0
Bit depth                        : 8 bits
Scan type                        : Progressive
Compression mode                : Lossy
Bits/(Pixel*Frame)              : 0.233
Stream size                      : 1.12 GiB (85%)
Writing library                  : XviD 1.2.1 (UTC 2008-12-04)

Audio
ID                              : 1
Format                          : MPEG Audio
Format version                  : Version 1
Format profile                  : Layer 3
Codec ID                        : 55
Codec ID/Hint                    : MP3
Duration                        : 1h 44mn
Bit rate mode                    : Constant
Bit rate                        : 256 Kbps
Channel(s)                      : 2 channels
Sampling rate                    : 44.1 KHz
Compression mode                : Lossy
Stream size                      : 192 MiB (14%)
Alignment                        : Split accross interleaves
Interleave, duration            : 33 ms (1.00 video frame)
Interleave, preload duration    : 500 ms

DOWNLOAD:
hellshare
kód:
http://download.hellshare.sk/legend-of-the-fist-return-of-chen-zhen-2010-dvdrip-xvid-sk-snf-avi/3906300

euroshare
kód:
http://euroshare.eu/file/2043315/legend.of.the.fist.return.of.chen.zhen.2010.dvdrip.xvid.sk-snf.avi

Upnito
kód:
http://www.upnito.sk/subor/aa66cc29995239f253a003e544158551.html
http://www.upnito.sk/subor/696f154e37f12495f4b9bff30d40d4f8.html


BEZ HESLA
Návrat hore Goto down
Zobrazit informácie o autorovi http://warnerfilm.forumn.org
 
Legendárna päsť / Legend of the Fist: The Return ... (2010)
Zobraziť predchádzajúcu tému Zobraziť nasledujúcu tému Návrat hore 
Strana 1 z 1

Povolenie tohoto fóra:Nemôžete odpovedať na témy v tomto fóre.
Vsetko zadarmo :: .::Download filmy::. :: .::Filmy s ceskym a slovenskym dabingom::.-
Prejdi na: