Vsetko zadarmo

Vsetko zadarmo
 
DomovFAQHľadaťRegistráciaZoznam užívateľovUžívateľské skupinyPrihlásenie

Share | 
 

 Mein Kampf (2009)

Zobraziť predchádzajúcu tému Zobraziť nasledujúcu tému Goto down 
AutorSpráva
aismen
Mega Uploader
Mega Uploader


Počet príspevkov : 703
Registration date : 16.04.2008

OdoslaťPredmet: Mein Kampf (2009)   Št október 27, 2011 2:55 pm

Mein Kampf
Mein Kampf


Drama
Rakousko / Německo / Švýcarsko, 2009, 100 min

CSFD

Hrají:Tom Schilling, Wolf Bachofner, Götz George, Simon Schwarz, Anna Unterberger

V roce 1910 opustil mladý Adolf Hitler (Tom Schilling) své rodné město, nejjižnější rakouskou provincii, a odcestoval do Vídně. S cílem dobýt celý svět jako slavný malíř chtěl ukázat svůj talent na Akademii výtvarného umění. Mladý umělec si pronajal pokoj v domě pro bezdomovce a čekal na svůj velký den. Svůj pokoj sdílel s židovským prodejcem knih Schlomem Herzlem (Götz George). S příchodem zprávy z Akademie o nepřijetí se ukazuje, že Hitler přecenil své umělecké schopnosti a jeho malý svět se hroutí. Hitler se nemůže vyrovnat s takovým ponížením a se ztracenou důvěrou v sebe samotného, chce skoncovat se svým životem. Paradoxně je to právě Žid Schlomo, kdo ho nakonec přesvědčí, aby zkusil své štěstí v politice. Netrvá dlouho a Hitler se stane vedoucím místní radikální skupiny, která je známá díky svému násilnému chování. Hořko-sladký absurdní film Mein Kampf je natočen podle divadelní hry George Taboriho, která našla svou cestu na světová pódia po vídeňské premiéře v roce 1987.

INFO:
kód:
Format                          : AVI
Format/Info                      : Audio Video Interleave
File size                        : 951 MiB
Duration                        : 1h 46mn
Overall bit rate                : 1 253 Kbps
Writing application              : VirtualDubMod 1.5.10.2 (build 2540/release)
Writing library                  : VirtualDubMod build 2540/release

Video
ID                              : 0
Format                          : MPEG-4 Visual
Format profile                  : Advanced Simple@L5
Format settings, BVOP            : 1
Format settings, QPel            : No
Format settings, GMC            : No warppoints
Format settings, Matrix          : Custom
Codec ID                        : XVID
Codec ID/Hint                    : XviD
Duration                        : 1h 46mn
Bit rate                        : 1 115 Kbps
Width                            : 640 pixels
Height                          : 352 pixels
Display aspect ratio            : 16:9
Frame rate                      : 25.000 fps
Color space                      : YUV
Chroma subsampling              : 4:2:0
Bit depth                        : 8 bits
Scan type                        : Progressive
Compression mode                : Lossy
Bits/(Pixel*Frame)              : 0.198
Stream size                      : 846 MiB (89%)
Writing library                  : XviD 63

Audio
ID                              : 1
Format                          : MPEG Audio
Format version                  : Version 1
Format profile                  : Layer 3
Mode                            : Joint stereo
Mode extension                  : MS Stereo
Codec ID                        : 55
Codec ID/Hint                    : MP3
Duration                        : 1h 46mn
Bit rate mode                    : Constant
Bit rate                        : 128 Kbps
Channel(s)                      : 2 channels
Sampling rate                    : 48.0 KHz
Compression mode                : Lossy
Delay relative to video          : 24ms
Stream size                      : 97.1 MiB (10%)
Alignment                        : Aligned on interleaves
Interleave, duration            : 40 ms (1.00 video frame)
Interleave, preload duration    : 504 ms

DOWNLOAD:
hellshare
kód:
http://download.hellshare.sk/mein-kampf-2009-avi/3889157

euroshare
kód:
http://euroshare.eu/file/2022196/mein_kampf_2009.avi

BEZ HESLA
Návrat hore Goto down
Zobrazit informácie o autorovi http://warnerfilm.forumn.org
 
Mein Kampf (2009)
Zobraziť predchádzajúcu tému Zobraziť nasledujúcu tému Návrat hore 
Strana 1 z 1

Povolenie tohoto fóra:Nemôžete odpovedať na témy v tomto fóre.
Vsetko zadarmo :: .::Download filmy::. :: .::Filmy s ceskym a slovenskym dabingom::.-
Prejdi na: