Vsetko zadarmo

Vsetko zadarmo
 
DomovFAQHľadaťRegistráciaZoznam užívateľovUžívateľské skupinyPrihlásenie

Share | 
 

 Zlatý holky / All that Glitters (2010)

Zobraziť predchádzajúcu tému Zobraziť nasledujúcu tému Goto down 
AutorSpráva
aismen
Mega Uploader
Mega Uploader


Počet príspevkov : 703
Registration date : 16.04.2008

OdoslaťPredmet: Zlatý holky / All that Glitters (2010)   Št október 27, 2011 6:32 am

Tout ce qui brille
Zlatý holky
All that Glitters


Komedie
Francie, 2010, 100 min

CSFD

Režie:Géraldine Nakache
Hrají:Leila Bekhti, Géraldine Nakache, Virginie Ledoyen, Linh Dan Pham, Audrey Lamy, Daniel Cohen, Lucie Bourdeu, Jeanne Ferron, Alexandre Gars, Sabrina Ouazani, Nader Boussandel

Kdo se nikdy nestyděl za nový účes své matky, tátovy trapné vtipy, sametový gauč v obývacím pokoji či přítele z dětství, kterému nic nedocházelo? Elly pracuje v obchodě se sendviči, Lila prodává v kině popcorn. Jejich přátelství, které je plné života díky smíchu, hašteření, tajemstvím i kruté upřímnosti, se odehrává v jejich společném skromném bytě na sídlišti pouhých deset minut od světel zářícího města. Lila a Elly žijí právě na druhém břehu Paříže. A jako sestry sdílí své sny o novém životě za řekou… a o všech těch neuvěřitelných módních botičkách. Přes malé i velké lži se pokusí proplížit do světa, který jim není úplně vlastní – do světa přepychu, kde je všechno možné. Stanou se z nich Zlatý holky?

INFO:
kód:
Format                          : AVI
Format/Info                      : Audio Video Interleave
File size                        : 727 MiB
Duration                        : 1h 36mn
Overall bit rate                : 1 059 Kbps
Movie name                      : Zlaty.holky.2010.DVDRip.XviD.CZ-FWG
Writing application              : Lavf53.15.0
Copyright                        :  FWG

Video
ID                              : 0
Format                          : MPEG-4 Visual
Format profile                  : Advanced Simple@L5
Format settings, BVOP            : No
Format settings, QPel            : No
Format settings, GMC            : No warppoints
Format settings, Matrix          : Default (H.263)
Codec ID                        : XVID
Codec ID/Hint                    : XviD
Duration                        : 1h 36mn
Bit rate                        : 891 Kbps
Width                            : 720 pixels
Height                          : 304 pixels
Display aspect ratio            : 2.35:1
Frame rate                      : 25.000 fps
Color space                      : YUV
Chroma subsampling              : 4:2:0
Bit depth                        : 8 bits
Scan type                        : Progressive
Compression mode                : Lossy
Bits/(Pixel*Frame)              : 0.163
Stream size                      : 612 MiB (84%)
Writing library                  : XviD 64

Audio
ID                              : 1
Format                          : MPEG Audio
Format version                  : Version 1
Format profile                  : Layer 3
Mode                            : Joint stereo
Mode extension                  : MS Stereo
Codec ID                        : 55
Codec ID/Hint                    : MP3
Duration                        : 1h 36mn
Bit rate mode                    : Variable
Bit rate                        : 155 Kbps
Minimum bit rate                : 128 Kbps
Channel(s)                      : 2 channels
Sampling rate                    : 48.0 KHz
Compression mode                : Lossy
Stream size                      : 107 MiB (15%)
Alignment                        : Aligned on interleaves
Interleave, duration            : 24 ms (0.60 video frame)
Writing library                  : LAME3.90.
Encoding settings                : -m j -V 3 -q 2 -lowpass 19.2 --vbr-new -b 128

DOWNLOAD:
hellshare
kód:
http://download.hellshare.sk/zlaty-holky-2010-cz-dabing-avi/3886555

euroshare
kód:
http://euroshare.eu/file/2017954/zlaty_holky_2010_cz_dabing.avi

BEZ HESLA
Návrat hore Goto down
Zobrazit informácie o autorovi http://warnerfilm.forumn.org
 
Zlatý holky / All that Glitters (2010)
Zobraziť predchádzajúcu tému Zobraziť nasledujúcu tému Návrat hore 
Strana 1 z 1

Povolenie tohoto fóra:Nemôžete odpovedať na témy v tomto fóre.
Vsetko zadarmo :: .::Download filmy::. :: .::Filmy s ceskym a slovenskym dabingom::.-
Prejdi na: