Vsetko zadarmo

Vsetko zadarmo
 
DomovFAQHľadaťRegistráciaZoznam užívateľovUžívateľské skupinyPrihlásenie

Share | 
 

 Lidice (2011)

Zobraziť predchádzajúcu tému Zobraziť nasledujúcu tému Goto down 
AutorSpráva
aismen
Mega Uploader
Mega Uploader


Počet príspevkov : 703
Registration date : 16.04.2008

OdoslaťPredmet: Lidice (2011)   Št október 27, 2011 6:28 am

Lidice

Drama / Válečný / Historický
Česko / Polsko, 2011, 126 min

CSFD

Režie:Petr Nikolaev
Hrají:Karel Roden, Zuzana Fialová, Roman Luknár, Zuzana Bydžovská, Ondřej Novák, Norbert Lichý, Veronika Kubařová, Václav Jiráček, Jan Budař, Joachim Paul Assböck, Sabina Remundová, Milan Kňažko, Pavlína Štorková, Marek Adamczyk, Jiří Vobecký, Jiří Ployhar ml., Karel Zima, Bořík Procházka, Adam Kubišta, Ludmila Šafářová, Ondřej Havel, Marika Šoposká, Jan Vondráček, Miroslav Hanuš, Mariusz Osmelak, Anna Kratochvílová, Šárka Teplíková, Robert Nebřenský, Michaela Mrvíková, Michal Zelenka

Příběh Lidic, je příběhem obyčejných lidí, kteří se absurdní shodou náhod připletli do cesty dějinám. Podle scénáře Zdeňka Mahlera, oceněného cenou Sazky v r. 2007, nabízí pohled na tragický osud Lidic za 2. světové války z neobvyklé perspektivy. Přibližuje osudy obyvatel Lidic skrz mezilidské vztahy, a to zejména lásku, která stojí na začátku celého příběhu. Jde o velkofilm plný emocí, který poukazuje na to, jak zdánlivé maličkosti mohou změnit chod dějin a způsobit tragédii. Rok 1942 – německá propaganda úzkostlivě tají genocidu páchanou na civilním obyvatelstvu. Po atentátu na druhého muže třetí říše Reinharda Heydricha však udělá výjimku. Po vypálení malé české vesnice Lidice, vše vyhlásí do světa. Jako záminka k vypálení obce stačí jeden milostný dopis. V době svého tragického konce, v červnu 1942, měly Lidice za sebou dějiny trvající nejméně šest staletí. Nacisté chladně popravili všechny lidické muže, ženy a děti nechali převézt do koncentračního tábora. Některé děti dali na převýchovu. Celková bilance – 192 popravených mužů, 58 žen zemřelo v koncentračních táborech a 88 dětí bylo posláno do plynu. Obec Lidice byla vymazána z map a srovnána se zemí. Výpravný velkofilm Lidice je natočen podle skutečné události.

INFO:
kód:
Format                          : AVI
Format/Info                      : Audio Video Interleave
File size                        : 966 MiB
Duration                        : 2h 0mn
Overall bit rate                : 1 119 Kbps
Writing application              : VirtualDubMod 1.5.10.2 (build 2540/release)
Writing library                  : VirtualDubMod build 2540/release

Video
ID                              : 0
Format                          : MPEG-4 Visual
Format profile                  : Advanced Simple@L5
Format settings, BVOP            : 1
Format settings, QPel            : No
Format settings, GMC            : No warppoints
Format settings, Matrix          : Custom
Codec ID                        : XVID
Codec ID/Hint                    : XviD
Duration                        : 2h 0mn
Bit rate                        : 981 Kbps
Width                            : 640 pixels
Height                          : 352 pixels
Display aspect ratio            : 16:9
Frame rate                      : 25.000 fps
Color space                      : YUV
Chroma subsampling              : 4:2:0
Bit depth                        : 8 bits
Scan type                        : Progressive
Compression mode                : Lossy
Bits/(Pixel*Frame)              : 0.174
Stream size                      : 847 MiB (88%)
Writing library                  : XviD 63

Audio
ID                              : 1
Format                          : MPEG Audio
Format version                  : Version 1
Format profile                  : Layer 3
Mode                            : Joint stereo
Mode extension                  : MS Stereo
Codec ID                        : 55
Codec ID/Hint                    : MP3
Duration                        : 2h 0mn
Bit rate mode                    : Constant
Bit rate                        : 128 Kbps
Channel(s)                      : 2 channels
Sampling rate                    : 48.0 KHz
Compression mode                : Lossy
Delay relative to video          : 24ms
Stream size                      : 111 MiB (11%)
Alignment                        : Aligned on interleaves
Interleave, duration            : 40 ms (1.00 video frame)
Interleave, preload duration    : 504 ms

DOWNLOAD:
hellshare
kód:
http://download.hellshare.sk/lidice-2011-avi/3886614

euroshare
kód:
http://euroshare.eu/file/2018296/lidice_2011.avi

BEZ HESLA
Návrat hore Goto down
Zobrazit informácie o autorovi http://warnerfilm.forumn.org
 
Lidice (2011)
Zobraziť predchádzajúcu tému Zobraziť nasledujúcu tému Návrat hore 
Strana 1 z 1

Povolenie tohoto fóra:Nemôžete odpovedať na témy v tomto fóre.
Vsetko zadarmo :: .::Download filmy::. :: .::Filmy s ceskym a slovenskym dabingom::.-
Prejdi na: