Vsetko zadarmo

Vsetko zadarmo
 
DomovFAQHľadaťRegistráciaZoznam užívateľovUžívateľské skupinyPrihlásenie

Share | 
 

 Transformers 3: Dark of the Moon (2011)

Zobraziť predchádzajúcu tému Zobraziť nasledujúcu tému Goto down 
AutorSpráva
aismen
Mega Uploader
Mega Uploader


Počet príspevkov : 703
Registration date : 16.04.2008

OdoslaťPredmet: Transformers 3: Dark of the Moon (2011)   So október 22, 2011 4:38 pm

Transformers 3
Transformers - Temná strana Mesiaca
Transformers: Dark of the Moon


Akční / Sci-Fi / Dobrodružný
USA, 2011, 157 min

CSFD

Režie:Michael Bay
Hudba:Steve Jablonsky
Hrají:Shia LaBeouf, Rosie Huntington-Whiteley, Frances McDormand, Hugo Weaving, John Turturro, Tyrese Gibson, John Malkovich, Patrick Dempsey, Ken Jeong, Alan Tudyk, Peter Cullen, Kevin Dunn, Josh Duhamel, Keiko Agena, Frank Welker, Leonard Nimoy, Tom Kenny, Karyn Parsons, Glenn Morshower, Robert Foxworth, Charles Adler, Kym Whitley, Mark Ryan, Jess Harnell, Darren O'Hare, David St. James, Andrew Daly, Jesse Heiman, Inna Korobkina, James Remar

V originále nese třetí díl Transformers podtitul „Temná strana Měsíce“. Právě tady před lety posádka první americké měsíční expedice Apollo 11 objevila mimozemské vesmírné plavidlo a moudře si to nechala pro sebe, respektive pro tajné služby. Podle Autobotů, kteří už dvakrát dokázali ochránit Pozemšťany před ničivou invazí jejich zlých konkurentů Deceptikonů, to ale byla zásadní chyba. Chyba, která by mohla zničit celou naši civilizaci, pokud nám Autoboti znovu nepomůžou. Kromě starých známých plecháčů v čele s Optimem Primem a Bumblebeem se na scénu vrací jejich největší lidský spojenec Sam (Shia LaBeouf), životem a bitvami s roboty otřískaný mladý muž, který chce ze všeho nejvíc konečně začít žít normální život. Bohužel už ne po boku šťabajzny Mikaely (Megan Fox), která byla z důvodů, jež znají jen Megan/režisér Bay/představitelé Paramountu, vyškrtnuta ze scénáře. Sama a jeho hormony naštěstí scenárista Ehren Kruger dlouho zahálet nenechá, když mu do cesty přihraje velepohlednou Carly (modelka Rosie Huntington – Whiteley). Ta se naneštěstí stane příčinou Samova dalšího angažmá v nekonečném souboji mezi Autoboty a Deceptikony. Ti se totiž rozhodli zlikvidovat celé Chicago, v němž se Carly právě vyskytuje, a tak se Sam chtě nechtě musí do tohoto města vydat, aby se ji pokusil zachránit. A jen tak bokem i celou lidskou rasu.


INFO:
kód:
Format                          : AVI
Format/Info                      : Audio Video Interleave
File size                        : 994 MiB
Duration                        : 2h 34mn
Overall bit rate                : 900 Kbps

Video
ID                              : 0
Format                          : MPEG-4 Visual
Format profile                  : Advanced Simple@L5
Format settings, BVOP            : 2
Format settings, QPel            : No
Format settings, GMC            : No warppoints
Format settings, Matrix          : Default (H.263)
Codec ID                        : XVID
Codec ID/Hint                    : XviD
Duration                        : 2h 34mn
Bit rate                        : 760 Kbps
Width                            : 656 pixels
Height                          : 336 pixels
Display aspect ratio            : 1.952
Frame rate                      : 23.976 fps
Color space                      : YUV
Chroma subsampling              : 4:2:0
Bit depth                        : 8 bits
Scan type                        : Progressive
Compression mode                : Lossy
Bits/(Pixel*Frame)              : 0.144
Stream size                      : 839 MiB (84%)
Writing library                  : XviD 1.2.1 (UTC 2008-12-04)

Audio
ID                              : 1
Format                          : MPEG Audio
Format version                  : Version 1
Format profile                  : Layer 3
Codec ID                        : 55
Codec ID/Hint                    : MP3
Duration                        : 2h 34mn
Bit rate mode                    : Constant
Bit rate                        : 128 Kbps
Channel(s)                      : 2 channels
Sampling rate                    : 48.0 KHz
Compression mode                : Lossy
Stream size                      : 141 MiB (14%)
Alignment                        : Split accross interleaves
Interleave, duration            : 24 ms (0.58 video frame)
Writing library                  : LAME3.98.4

DOWNLOAD:
hellshare
kód:
http://download.hellshare.sk/transformers-3-avi/3851876

euroshare
kód:
http://euroshare.eu/file/1982592/transformers_3.avi

BEZ HESLA
Návrat hore Goto down
Zobrazit informácie o autorovi http://warnerfilm.forumn.org
 
Transformers 3: Dark of the Moon (2011)
Zobraziť predchádzajúcu tému Zobraziť nasledujúcu tému Návrat hore 
Strana 1 z 1

Povolenie tohoto fóra:Nemôžete odpovedať na témy v tomto fóre.
Vsetko zadarmo :: .::Download filmy::. :: .::Filmy s ceskym a slovenskym dabingom::.-
Prejdi na: