Vsetko zadarmo

Vsetko zadarmo
 
DomovFAQHľadaťRegistráciaZoznam užívateľovUžívateľské skupinyPrihlásenie

Share | 
 

 Vřískot 4 / Scream 4 (2011)

Zobraziť predchádzajúcu tému Zobraziť nasledujúcu tému Goto down 
AutorSpráva
aismen
Mega Uploader
Mega Uploader


Počet príspevkov : 703
Registration date : 16.04.2008

OdoslaťPredmet: Vřískot 4 / Scream 4 (2011)   Pi október 21, 2011 11:19 am

Vreskot 4
Scream 4
Vřískot 4


Horor / Thriller / Mysteriózní
USA, 2011, 111 min

CSFD

Režie:Wes Craven
Hudba:Marco Beltrami
Hrají:Neve Campbell, Courteney Cox, Emma Roberts, David Arquette, Rory Culkin, Hayden Panettiere, Marley Shelton, Marielle Jaffe, Kristen Bell, Anna Paquin, Mary McDonnell, Adam Brody, Anthony Anderson, Erik Knudsen, Nancy O´Dell, Brittany Robertson, Lucy Hale, Shenae Grimes, Alison Brie, Aimee Teegarden, Gordon Michaels

Sidney Prescott, nyní autorka nové self-help knihy, se vrací domů do Woodsboro, které je poslední zastávkou jejího turné k vydané knize. Tady se opět spojí se šerifem Deweym a Gale, kteří jsou nyní manželé a její sestřenicí Jill a tetou Kate. Naneštěstí její návrat přiláká zpátky i Ghostface a tím se Dewey, společně s Jill, jejími kamarády a celým městečkem Woodsboro dostávají do nebezpečí.

INFO:
kód:
Format                          : AVI
Format/Info                      : Audio Video Interleave
File size                        : 897 MiB
Duration                        : 1h 50mn
Overall bit rate                : 1 132 Kbps
Writing application              : VirtualDubMod 1.5.10.2 (build 2540/release)
Writing library                  : VirtualDubMod build 2540/release

Video
ID                              : 0
Format                          : MPEG-4 Visual
Format profile                  : Advanced Simple@L5
Format settings, BVOP            : 2
Format settings, QPel            : No
Format settings, GMC            : No warppoints
Format settings, Matrix          : Default (H.263)
Codec ID                        : XVID
Codec ID/Hint                    : XviD
Duration                        : 1h 50mn
Bit rate                        : 995 Kbps
Width                            : 640 pixels
Height                          : 352 pixels
Display aspect ratio            : 16:9
Frame rate                      : 23.976 fps
Color space                      : YUV
Chroma subsampling              : 4:2:0
Bit depth                        : 8 bits
Scan type                        : Progressive
Compression mode                : Lossy
Bits/(Pixel*Frame)              : 0.184
Stream size                      : 788 MiB (88%)
Writing library                  : XviD 1.2.1 (UTC 2008-12-04)

Audio
ID                              : 1
Format                          : MPEG Audio
Format version                  : Version 1
Format profile                  : Layer 3
Mode                            : Joint stereo
Mode extension                  : MS Stereo
Codec ID                        : 55
Codec ID/Hint                    : MP3
Duration                        : 1h 50mn
Bit rate mode                    : Constant
Bit rate                        : 128 Kbps
Channel(s)                      : 2 channels
Sampling rate                    : 48.0 KHz
Compression mode                : Lossy
Delay relative to video          : 24ms
Stream size                      : 101 MiB (11%)
Alignment                        : Aligned on interleaves
Interleave, duration            : 42 ms (1.00 video frame)
Interleave, preload duration    : 504 ms

DOWNLOAD:
hellshare
kód:
http://download.hellshare.sk/scream-4-2011cz-avi/3841162

euroshare
kód:
http://euroshare.eu/file/1971616/scream_4_2011cz.avi

BEZ HESLA
Návrat hore Goto down
Zobrazit informácie o autorovi http://warnerfilm.forumn.org
 
Vřískot 4 / Scream 4 (2011)
Zobraziť predchádzajúcu tému Zobraziť nasledujúcu tému Návrat hore 
Strana 1 z 1

Povolenie tohoto fóra:Nemôžete odpovedať na témy v tomto fóre.
Vsetko zadarmo :: .::Download filmy::. :: .::Filmy s ceskym a slovenskym dabingom::.-
Prejdi na: