Vsetko zadarmo

Vsetko zadarmo
 
DomovFAQHľadaťRegistráciaZoznam užívateľovUžívateľské skupinyPrihlásenie

Share | 
 

 Vřískot 4 / Scream 4 (2011)HD

Zobraziť predchádzajúcu tému Zobraziť nasledujúcu tému Goto down 
AutorSpráva
aismen
Mega Uploader
Mega Uploader


Počet príspevkov : 703
Registration date : 16.04.2008

OdoslaťPredmet: Vřískot 4 / Scream 4 (2011)HD   Št október 20, 2011 5:57 pm

Vreskot 4
Scream 4
Vřískot 4


Horor / Thriller / Mysteriózní
USA, 2011, 111 min

CSFD

Režie:Wes Craven
Hudba:Marco Beltrami
Hrají:Neve Campbell, Courteney Cox, Emma Roberts, David Arquette, Rory Culkin, Hayden Panettiere, Marley Shelton, Marielle Jaffe, Kristen Bell, Anna Paquin, Mary McDonnell, Adam Brody, Anthony Anderson, Erik Knudsen, Nancy O´Dell, Brittany Robertson, Lucy Hale, Shenae Grimes, Alison Brie, Aimee Teegarden, Gordon Michaels

Sidney Prescott, nyní autorka nové self-help knihy, se vrací domů do Woodsboro, které je poslední zastávkou jejího turné k vydané knize. Tady se opět spojí se šerifem Deweym a Gale, kteří jsou nyní manželé a její sestřenicí Jill a tetou Kate. Naneštěstí její návrat přiláká zpátky i Ghostface a tím se Dewey, společně s Jill, jejími kamarády a celým městečkem Woodsboro dostávají do nebezpečí.

INFO:
kód:
Format                          : Matroska
Format version                  : Version 2
File size                        : 4.37 GiB
Duration                        : 1h 50mn
Overall bit rate                : 5 648 Kbps
Encoded date                    : UTC 2011-08-06 08:41:18
Writing application              : mkvmerge v4.6.0 ('Still Crazy After All These Years') creado el Mar 10 2011 02:50:32
Writing library                  : libebml v1.2.0 + libmatroska v1.1.0

Video
ID                              : 1
Format                          : AVC
Format/Info                      : Advanced Video Codec
Format profile                  : High@L4.1
Format settings, CABAC          : Yes
Format settings, ReFrames        : 5 frames
Codec ID                        : V_MPEG4/ISO/AVC
Duration                        : 1h 50mn
Bit rate                        : 5 199 Kbps
Width                            : 1 280 pixels
Height                          : 720 pixels
Display aspect ratio            : 16:9
Frame rate                      : 23.976 fps
Color space                      : YUV
Chroma subsampling              : 4:2:0
Bit depth                        : 8 bits
Scan type                        : Progressive
Bits/(Pixel*Frame)              : 0.235
Stream size                      : 3.94 GiB (90%)
Writing library                  : x264 core 116 r2044 392e762
Encoding settings                : cabac=1 / ref=5 / deblock=1:0:0 / analyse=0x3:0x113 / me=umh / subme=8 / psy=1 / psy_rd=1.00:0.00 / mixed_ref=1 / me_range=16 / chroma_me=1 / trellis=1 / 8x8dct=1 / cqm=0 / deadzone=21,11 / fast_pskip=1 / chroma_qp_offset=-2 / threads=12 / sliced_threads=0 / nr=0 / decimate=1 / interlaced=0 / bluray_compat=0 / constrained_intra=0 / bframes=3 / b_pyramid=2 / b_adapt=2 / b_bias=0 / direct=3 / weightb=1 / open_gop=0 / weightp=2 / keyint=250 / keyint_min=23 / scenecut=40 / intra_refresh=0 / rc_lookahead=50 / rc=2pass / mbtree=1 / bitrate=5199 / ratetol=1.0 / qcomp=0.60 / qpmin=0 / qpmax=69 / qpstep=4 / cplxblur=20.0 / qblur=0.5 / ip_ratio=1.40 / aq=1:1.00
Language                        : English

Audio
ID                              : 2
Format                          : AC-3
Format/Info                      : Audio Coding 3
Mode extension                  : CM (complete main)
Codec ID                        : A_AC3
Duration                        : 1h 50mn
Bit rate mode                    : Constant
Bit rate                        : 448 Kbps
Channel(s)                      : 6 channels
Channel positions                : Front: L C R, Side: L R, LFE
Sampling rate                    : 48.0 KHz
Bit depth                        : 16 bits
Compression mode                : Lossy
Stream size                      : 355 MiB (8%)
Language                        : English

Menu
00:00:00.000                    : en:00:00:00.000
00:09:41.414                    : en:00:09:41.414
00:20:34.191                    : en:00:20:34.191
00:31:15.916                    : en:00:31:15.916
00:39:58.396                    : en:00:39:58.396
00:48:29.782                    : en:00:48:29.782
00:57:41.958                    : en:00:57:41.958
01:06:37.744                    : en:01:06:37.744
01:15:48.210                    : en:01:15:48.210
01:24:44.288                    : en:01:24:44.288
01:34:07.100                    : en:01:34:07.100
01:43:25.574                    : en:01:43:25.574

DOWNLOAD:
hellshare
kód:
http://download.hellshare.sk/scream-4-2011-part1-rar/3835272
http://download.hellshare.sk/scream-4-2011-part2-rar/3835329
http://download.hellshare.sk/scream-4-2011-part3-rar/3835375
http://download.hellshare.sk/scream-4-2011-part4-rar/3835427
http://download.hellshare.sk/scream-4-2011-part5-rar/3835476
http://download.hellshare.sk/scream-4-2011-part6-rar/3835516
http://download.hellshare.sk/scream-4-2011-part7-rar/3835576

euroshare
kód:
http://euroshare.eu/file/1968026/scream_4__2011_.part1.rar
http://euroshare.eu/file/1968042/scream_4__2011_.part2.rar
http://euroshare.eu/file/1968055/scream_4__2011_.part3.rar
http://euroshare.eu/file/1968068/scream_4__2011_.part4.rar
http://euroshare.eu/file/1968088/scream_4__2011_.part5.rar
http://euroshare.eu/file/1968107/scream_4__2011_.part6.rar
http://euroshare.eu/file/1968117/scream_4__2011_.part7.rar

BEZ HESLA
Návrat hore Goto down
Zobrazit informácie o autorovi http://warnerfilm.forumn.org
 
Vřískot 4 / Scream 4 (2011)HD
Zobraziť predchádzajúcu tému Zobraziť nasledujúcu tému Návrat hore 
Strana 1 z 1

Povolenie tohoto fóra:Nemôžete odpovedať na témy v tomto fóre.
Vsetko zadarmo :: .::Download filmy::. :: .::Filmy s ceskymi a slovenskymi titulkami::.-
Prejdi na: