Vsetko zadarmo

Vsetko zadarmo
 
DomovFAQHľadaťRegistráciaZoznam užívateľovUžívateľské skupinyPrihlásenie

Share | 
 

 Win Win (2011)

Zobraziť predchádzajúcu tému Zobraziť nasledujúcu tému Goto down 
AutorSpráva
aismen
Mega Uploader
Mega Uploader


Počet príspevkov : 703
Registration date : 16.04.2008

OdoslaťPredmet: Win Win (2011)   Št október 20, 2011 12:12 pm

Win Win
Win Win


Komedie / Drama
USA, 2011, 106 min

CSFD

Režie:Thomas McCarthy
Hrají:Paul Giamatti, Amy Ryan, Bobby Cannavale, Jeffrey Tambor, Melanie Lynskey, Alex Shaffer, Nina Arianda, Margo Martindale, Burt Young


Pesimistický advokát Mike Flaherty (Paul Giamatti), který dobrovolničí coby trenér wrestlingu na střední škole, narazí díky pochybnému melouchu na mladého nadějného sportovce. Když už to vypadá, že se na něj štěstí usmálo rovnou dvakrát, vloží se do hry chlapcova matka, kterou právě propustili z odvykací léčebny, je úplně švorc a hrozí, že všechno zhatí. McCarthy se velmi zručně chopil tématu balancujího mezi dramatem a komedií a ve svém filmu Win Win se zaobírá tématy jako jsou zlomená srdce a lidskost v tom nejryzejším slova smyslu.

INFO:
kód:
Format                          : AVI
Format/Info                      : Audio Video Interleave
File size                        : 711 MiB
Duration                        : 1h 46mn
Overall bit rate                : 938 Kbps
Writing application              : VirtualDubMod 1.5.10.2 (build 2540/release)
Writing library                  : VirtualDubMod build 2540/release

Video
ID                              : 0
Format                          : MPEG-4 Visual
Format profile                  : Advanced Simple@L5
Format settings, BVOP            : 2
Format settings, QPel            : No
Format settings, GMC            : No warppoints
Format settings, Matrix          : Default (H.263)
Codec ID                        : XVID
Codec ID/Hint                    : XviD
Duration                        : 1h 46mn
Bit rate                        : 800 Kbps
Width                            : 720 pixels
Height                          : 400 pixels
Display aspect ratio            : 16:9
Frame rate                      : 23.976 fps
Color space                      : YUV
Chroma subsampling              : 4:2:0
Bit depth                        : 8 bits
Scan type                        : Progressive
Compression mode                : Lossy
Bits/(Pixel*Frame)              : 0.116
Stream size                      : 607 MiB (85%)
Writing library                  : XviD 1.2.1 (UTC 2008-12-04)

Audio
ID                              : 1
Format                          : MPEG Audio
Format version                  : Version 1
Format profile                  : Layer 3
Mode                            : Joint stereo
Mode extension                  : MS Stereo
Codec ID                        : 55
Codec ID/Hint                    : MP3
Duration                        : 1h 46mn
Bit rate mode                    : Constant
Bit rate                        : 128 Kbps
Channel(s)                      : 2 channels
Sampling rate                    : 48.0 KHz
Compression mode                : Lossy
Delay relative to video          : 24ms
Stream size                      : 97.1 MiB (14%)
Alignment                        : Aligned on interleaves
Interleave, duration            : 42 ms (1.00 video frame)
Interleave, preload duration    : 504 ms

DOWNLOAD:
hellshare
kód:
http://download.hellshare.sk/win-win-2011-avi/3831821

euroshare
kód:
http://euroshare.eu/file/1964215/win_win_2011.avi

BEZ HESLA
Návrat hore Goto down
Zobrazit informácie o autorovi http://warnerfilm.forumn.org
 
Win Win (2011)
Zobraziť predchádzajúcu tému Zobraziť nasledujúcu tému Návrat hore 
Strana 1 z 1

Povolenie tohoto fóra:Nemôžete odpovedať na témy v tomto fóre.
Vsetko zadarmo :: .::Download filmy::. :: .::Filmy s ceskym a slovenskym dabingom::.-
Prejdi na: