Vsetko zadarmo

Vsetko zadarmo
 
DomovFAQHľadaťRegistráciaZoznam užívateľovUžívateľské skupinyPrihlásenie

Share | 
 

 Czech Made Man (2011)

Zobraziť predchádzajúcu tému Zobraziť nasledujúcu tému Goto down 
AutorSpráva
aismen
Mega Uploader
Mega Uploader


Počet príspevkov : 703
Registration date : 16.04.2008

OdoslaťPredmet: Czech Made Man (2011)   St október 19, 2011 4:56 pm

Czech Made Man

Komedie / Drama
Česko, 2011, 90 min

CSFD

Režie:Tomáš Řehořek
Hudba:Karel Mařík
Hrají:Jan Budař, Kateřina Brožová, Milan Šteindler, Martin Písařík, Predrag Bjelac, Tomáš Matonoha, Zdeněk Srstka, Petr Čtvrtníček, Ester Kočičková, Katarína Hasprová, Jana Pehrová-Krausová, Jan Antonín Duchoslav, Norbert Lichý, Veronika Hong, Tomáš Magnusek, Hynek Čermák, Václav Upír Krejčí, Martin Hranáč, Filip Švarc, Václav Havel, Ivan Vodochodský, Vladimír Marek

Příběh sleduje jednu nečítankovou kariéru. Od otloukánka z chudé rodiny alkoholika, ke králi internetových domén. Nemožné je možné, padají normy, konvence, pravidla. Už jako kluk pochopí, že spolehnout se musí jedině sám na sebe. „Totáčem“ 80. let kličkuje nepříliš vzorově a přelomový listopad prožije rovněž nezvykle - mezi blázny v léčebně. Po revoluci už to jede, ba letí. Nahoru, ale i dolů. Do Německa a zpátky. Na Pankrác a zpátky. Do Číny a zpátky. Vše je tak snadné, až je to k smíchu (ale i tzv. „vo hubu“). Může za ten rozlet chytrost nebo vychytralost? Z netušených a nekonečných možností internetu vyroste ve finále virtuální blahobyt. Hrdina má všechno, dokonce plánuje hodně netradiční rodinu… Vypadá to na happyend, ten se ovšem stylově zvrtne.

INFO:
kód:
Format                          : AVI
Format/Info                      : Audio Video Interleave
Format profile                  : OpenDML
File size                        : 1.04 GiB
Duration                        : 1h 19mn
Overall bit rate                : 1 878 Kbps
Writing application              : Lavf52.78.4

Video
ID                              : 0
Format                          : MPEG-4 Visual
Format profile                  : Advanced Simple@L5
Format settings, BVOP            : 2
Format settings, QPel            : No
Format settings, GMC            : No warppoints
Format settings, Matrix          : Default (H.263)
Muxing mode                      : Packed bitstream
Codec ID                        : DX50
Codec ID/Hint                    : DivX 5
Duration                        : 1h 19mn
Bit rate                        : 1 541 Kbps
Width                            : 720 pixels
Height                          : 304 pixels
Display aspect ratio            : 2.35:1
Frame rate                      : 25.000 fps
Color space                      : YUV
Chroma subsampling              : 4:2:0
Bit depth                        : 8 bits
Scan type                        : Progressive
Compression mode                : Lossy
Bits/(Pixel*Frame)              : 0.282
Stream size                      : 875 MiB (82%)
Writing library                  : XviD 1.2.1 (UTC 2008-12-04)

Audio
ID                              : 1
Format                          : MPEG Audio
Format version                  : Version 1
Format profile                  : Layer 3
Mode                            : Joint stereo
Mode extension                  : MS Stereo
Codec ID                        : 55
Codec ID/Hint                    : MP3
Duration                        : 1h 19mn
Bit rate mode                    : Constant
Bit rate                        : 320 Kbps
Channel(s)                      : 2 channels
Sampling rate                    : 48.0 KHz
Compression mode                : Lossy
Stream size                      : 12.2 MiB (1%)
Alignment                        : Aligned on interleaves
Interleave, duration            : 357 ms (8.92 video frames)
Interleave, preload duration    : 24 ms
Writing library                  : LAME3.98.4

DOWNLOAD:
hellshare
kód:
http://download.hellshare.sk/czech-made-man-avi/3828393

euroshare
kód:
http://euroshare.eu/file/1961009/czech_made_man.avi

BEZ HESLA
Návrat hore Goto down
Zobrazit informácie o autorovi http://warnerfilm.forumn.org
 
Czech Made Man (2011)
Zobraziť predchádzajúcu tému Zobraziť nasledujúcu tému Návrat hore 
Strana 1 z 1

Povolenie tohoto fóra:Nemôžete odpovedať na témy v tomto fóre.
Vsetko zadarmo :: .::Download filmy::. :: .::Filmy s ceskym a slovenskym dabingom::.-
Prejdi na: