Vsetko zadarmo

Vsetko zadarmo
 
DomovFAQHľadaťRegistráciaZoznam užívateľovUžívateľské skupinyPrihlásenie

Share | 
 

 Ošetřovatel / Zookeeper, The (2011)

Zobraziť predchádzajúcu tému Zobraziť nasledujúcu tému Goto down 
AutorSpráva
aismen
Mega Uploader
Mega Uploader


Počet príspevkov : 703
Registration date : 16.04.2008

OdoslaťPredmet: Ošetřovatel / Zookeeper, The (2011)    St október 19, 2011 3:09 pm

Zoošetrovateľ
Zookeeper, The
Ošetřovatel


Komedie / Rodinný / Romantický
USA, 2011, 104 min

CSFD

Režie:Frank Coraci
Hudba:Rupert Gregson-Williams
Hrají:Kevin James, Adam Sandler, Sylvester Stallone, Jon Favreau, Rosario Dawson, Ken Jeong, Leslie Bibb, Donnie Wahlberg, Faizon Love, Judd Apatow, Cher, Thomas Gottschalk, Joe Rogan, Billy Silvia, Americo Presciutti, Dan Marshall

Zvířata ve Franklin Park Zoo zbožňují svého laskavého ošetřovatele Griffina Keyese (Kevin James). Griffin, kterému je příjemněji ve společnosti lva než ve společnosti ženy, usoudí, že jedinou jeho možností, jak najít dívku svých snů, je odejít ze zoo a najít si zajímavější práci. Zvířata se v záchvatu paniky rozhodnou porušit svá prastará pravidla mlčení a odhalí své největší tajemství: umí mluvit! Aby Griffina přiměla zůstat, rozhodnou se mu udělit lekce seznamování a dvoření – ve zvířecím stylu.

INFO:
kód:
Format                          : AVI
Format/Info                      : Audio Video Interleave
File size                        : 793 MiB
Duration                        : 1h 41mn
Overall bit rate                : 1 088 Kbps
Writing application              : VirtualDubMod 1.5.10.2 (build 2540/release)
Writing library                  : VirtualDubMod build 2540/release

Video
ID                              : 0
Format                          : MPEG-4 Visual
Format profile                  : Advanced Simple@L5
Format settings, BVOP            : 2
Format settings, QPel            : No
Format settings, GMC            : No warppoints
Format settings, Matrix          : Default (H.263)
Codec ID                        : XVID
Codec ID/Hint                    : XviD
Duration                        : 1h 41mn
Bit rate                        : 818 Kbps
Width                            : 640 pixels
Height                          : 272 pixels
Display aspect ratio            : 2.35:1
Frame rate                      : 23.976 fps
Color space                      : YUV
Chroma subsampling              : 4:2:0
Bit depth                        : 8 bits
Scan type                        : Progressive
Compression mode                : Lossy
Bits/(Pixel*Frame)              : 0.196
Stream size                      : 596 MiB (75%)
Writing library                  : XviD 1.2.1 (UTC 2008-12-04)

Audio #1
ID                              : 1
Format                          : MPEG Audio
Format version                  : Version 1
Format profile                  : Layer 3
Mode                            : Joint stereo
Mode extension                  : MS Stereo
Codec ID                        : 55
Codec ID/Hint                    : MP3
Duration                        : 1h 41mn
Bit rate mode                    : Constant
Bit rate                        : 128 Kbps
Channel(s)                      : 2 channels
Sampling rate                    : 48.0 KHz
Compression mode                : Lossy
Delay relative to video          : 24ms
Stream size                      : 93.3 MiB (12%)
Alignment                        : Aligned on interleaves
Interleave, duration            : 42 ms (1.00 video frame)
Interleave, preload duration    : 504 ms

Audio #2
ID                              : 2
Format                          : MPEG Audio
Format version                  : Version 1
Format profile                  : Layer 3
Mode                            : Joint stereo
Mode extension                  : MS Stereo
Codec ID                        : 55
Codec ID/Hint                    : MP3
Duration                        : 1h 41mn
Bit rate mode                    : Constant
Bit rate                        : 128 Kbps
Channel(s)                      : 2 channels
Sampling rate                    : 48.0 KHz
Compression mode                : Lossy
Delay relative to video          : 24ms
Stream size                      : 93.3 MiB (12%)
Alignment                        : Aligned on interleaves
Interleave, duration            : 42 ms (1.00 video frame)
Interleave, preload duration    : 504 ms

DOWNLOAD:
hellshare
kód:
http://download.hellshare.sk/zookeeper-2011-cz-avi/3828005

euroshare
kód:
http://euroshare.eu/file/1960463/zookeeper_2011_cz.avi

Upnito
kód:
http://www.upnito.sk/subor/c31122cea23c3a1a54453a2ab98fe3e7.html

BEZ HESLA
Návrat hore Goto down
Zobrazit informácie o autorovi http://warnerfilm.forumn.org
 
Ošetřovatel / Zookeeper, The (2011)
Zobraziť predchádzajúcu tému Zobraziť nasledujúcu tému Návrat hore 
Strana 1 z 1

Povolenie tohoto fóra:Nemôžete odpovedať na témy v tomto fóre.
Vsetko zadarmo :: .::Download filmy::. :: .::Filmy s ceskym a slovenskym dabingom::.-
Prejdi na: