Vsetko zadarmo

Vsetko zadarmo
 
DomovFAQHľadaťRegistráciaZoznam užívateľovUžívateľské skupinyPrihlásenie

Share | 
 

 Green Lantern / Green Lantern (2011)

Zobraziť predchádzajúcu tému Zobraziť nasledujúcu tému Goto down 
AutorSpráva
aismen
Mega Uploader
Mega Uploader


Počet príspevkov : 703
Registration date : 16.04.2008

OdoslaťPredmet: Green Lantern / Green Lantern (2011)   St október 19, 2011 2:58 pm

Green Lantern 3D
Green Lantern
Green Lantern


Akční / Sci-Fi / Dobrodružný / Fantasy
USA, 2011, 114 min (SE: 123 min)

CSFD

Režie:Martin Campbell
Hudba:James Newton Howard
Hrají:Ryan Reynolds, Blake Lively, Peter Sarsgaard, Mark Strong, Temuera Morrison, Jon Tenney, Tim Robbins, Angela Bassett, Jay O. Sanders, Taika Waititi, Laura Cayouette, Griff Furst, Geoffrey Rush, Michael Clarke Duncan, Clancy Brown

Vesmír jako takový je obrovskou záhadou, avšak po staletí tu existuje malá ale velmi mocná síla. Říkají si sbor Green Lantern a jsou to ochránci míru a spravedlnosti. Všichni válečníci jsou vázáni bratrskou přísahou kvůli udržení pořádku mezi galaxiemi, každý z nich nosí prsten, ze kterého čerpá svou super sílu. Když se však objeví nepřítel jménem Parallax s hrozbou, že zničí všechnu rovnováhu Vesmíru, leží osud a zkáza Země v rukou úplně nového člena, prvního lidského člena, který kdy byl mezi členy Green Lantern : Hala Jordana. Hal je talentovaný ale nafoukaný zkušební pilot ale má v sobě něco, co sbor očividně po celou dobu potřeboval : lidskost. To přinutí Green Lantern mít úctu k síle, která poprvé není spojena s prstenem, který dává super sílu. S pomocí kopilotky a dětské lásky Carol Ferris, může Hal rychle zvládnout svou novou moc a najít odvahu překonat strach a dokázat tak, že není pouze klíč k poražení Parallaxe. Stane se největším Green Lantern všech dob ...

INFO:
kód:
Format                          : AVI
Format/Info                      : Audio Video Interleave
File size                        : 899 MiB
Duration                        : 1h 54mn
Overall bit rate                : 1 102 Kbps
Writing application              : VirtualDubMod 1.5.10.2 (build 2540/release)
Writing library                  : VirtualDubMod build 2540/release

Video
ID                              : 0
Format                          : MPEG-4 Visual
Format profile                  : Advanced Simple@L5
Format settings, BVOP            : 2
Format settings, QPel            : No
Format settings, GMC            : No warppoints
Format settings, Matrix          : Default (H.263)
Codec ID                        : XVID
Codec ID/Hint                    : XviD
Duration                        : 1h 54mn
Bit rate                        : 965 Kbps
Width                            : 640 pixels
Height                          : 272 pixels
Display aspect ratio            : 2.35:1
Frame rate                      : 23.976 fps
Color space                      : YUV
Chroma subsampling              : 4:2:0
Bit depth                        : 8 bits
Scan type                        : Progressive
Compression mode                : Lossy
Bits/(Pixel*Frame)              : 0.231
Stream size                      : 787 MiB (88%)
Writing library                  : XviD 1.2.1 (UTC 2008-12-04)

Audio
ID                              : 1
Format                          : MPEG Audio
Format version                  : Version 1
Format profile                  : Layer 3
Mode                            : Joint stereo
Mode extension                  : MS Stereo
Codec ID                        : 55
Codec ID/Hint                    : MP3
Duration                        : 1h 54mn
Bit rate mode                    : Constant
Bit rate                        : 128 Kbps
Channel(s)                      : 2 channels
Sampling rate                    : 48.0 KHz
Compression mode                : Lossy
Delay relative to video          : 24ms
Stream size                      : 104 MiB (12%)
Alignment                        : Aligned on interleaves
Interleave, duration            : 42 ms (1.00 video frame)
Interleave, preload duration    : 504 ms

DOWNLOAD:
hellshare
kód:
http://download.hellshare.sk/green-lantern-2011-cz-avi/3827988

euroshare
kód:
http://euroshare.eu/file/1960442/green_lantern_2011_cz.avi

Upnito
kód:
http://www.upnito.sk/subor/1a2f56a35456cd7e622dab56ff70e865.html

BEZ HESLA
Návrat hore Goto down
Zobrazit informácie o autorovi http://warnerfilm.forumn.org
 
Green Lantern / Green Lantern (2011)
Zobraziť predchádzajúcu tému Zobraziť nasledujúcu tému Návrat hore 
Strana 1 z 1

Povolenie tohoto fóra:Nemôžete odpovedať na témy v tomto fóre.
Vsetko zadarmo :: .::Download filmy::. :: .::Filmy s ceskym a slovenskym dabingom::.-
Prejdi na: