Vsetko zadarmo

Vsetko zadarmo
 
DomovFAQHľadaťRegistráciaZoznam užívateľovUžívateľské skupinyPrihlásenie

Share | 
 

 Mučedníci / Martyrs (2008)

Zobraziť predchádzajúcu tému Zobraziť nasledujúcu tému Goto down 
AutorSpráva
aismen
Mega Uploader
Mega Uploader


Počet príspevkov : 703
Registration date : 16.04.2008

OdoslaťPredmet: Mučedníci / Martyrs (2008)   So október 15, 2011 11:30 pm

Martyrs
Mučedníci


Horor / Drama
Francie / Kanada, 2008, 97 min

CSFD

Režie:Pascal Laugier
Hrají:Morjana Alaoui, Mylène Jampanoï, Xavier Dolan

Mučedníci se stali přesně tím kultovním filmem, který máme všichni tak rádi. Je již nyní opředen řadou historek od těch „banálních“ o lidech omdlévajících během projekce až po tvrzení, že Bob Weinstein majitel práv pro americké území se vydržel dívat zhruba dvacet minut. Pokud bychom měli nastínit děj, abychom nic podstatného neprozradili, pak lze pouze říct, že vše začíná v 70. letech ve Francii, kdy je nalezena bloudící pomlácená dívka neschopná vyprávět o tom, co se jí stalo. O patnáct let později ta samá dívka Lucie vtrhne do honosné vily a nemilosrdně vyvraždí všechny její obyvatele. Hned za ní přijede její jediná přítelkyně Anna. Pak by slabší povahy měly opustit kino, protože začíná krvavé peklo. Při sledování filmu si rychle uvědomíte, že nic není tím, čím se zdá být. Vila se stane strašidelným domem, v jehož útrobách se obě dívky pokusí dobrat pravdy.

INFO:
kód:
Format                          : AVI
Format/Info                      : Audio Video Interleave
File size                        : 700 MiB
Duration                        : 1h 35mn
Overall bit rate                : 1 028 Kbps
Writing application              : VirtualDubMod 1.5.4.1 (build 2178/release)
Writing library                  : VirtualDubMod build 2178/release

Video
ID                              : 0
Format                          : MPEG-4 Visual
Format profile                  : Advanced Simple@L5
Format settings, BVOP            : 1
Format settings, QPel            : No
Format settings, GMC            : No warppoints
Format settings, Matrix          : Custom
Codec ID                        : XVID
Codec ID/Hint                    : XviD
Duration                        : 1h 35mn
Bit rate                        : 893 Kbps
Width                            : 672 pixels
Height                          : 368 pixels
Display aspect ratio            : 16:9
Frame rate                      : 25.000 fps
Color space                      : YUV
Chroma subsampling              : 4:2:0
Bit depth                        : 8 bits
Scan type                        : Progressive
Compression mode                : Lossy
Bits/(Pixel*Frame)              : 0.144
Stream size                      : 608 MiB (87%)
Writing library                  : XviD 1.2.1 (UTC 2008-12-04)

Audio
ID                              : 1
Format                          : MPEG Audio
Format version                  : Version 1
Format profile                  : Layer 3
Mode                            : Joint stereo
Mode extension                  : MS Stereo
Codec ID                        : 55
Codec ID/Hint                    : MP3
Duration                        : 1h 35mn
Bit rate mode                    : Constant
Bit rate                        : 128 Kbps
Channel(s)                      : 2 channels
Sampling rate                    : 48.0 KHz
Compression mode                : Lossy
Stream size                      : 87.2 MiB (12%)
Alignment                        : Aligned on interleaves
Interleave, duration            : 80 ms (2.00 video frames)
Interleave, preload duration    : 504 ms
Writing library                  : LAME3.98r
Encoding settings                : -m j -V 4 -q 2 -lowpass 17 -b 128

DOWNLOAD:
hellshare
kód:
http://download.hellshare.sk/mucednici-2008-avi/3799941

euroshare
kód:
http://euroshare.eu/file/1950816/mucednici_2008.avi

BEZ HESLA
Návrat hore Goto down
Zobrazit informácie o autorovi http://warnerfilm.forumn.org
 
Mučedníci / Martyrs (2008)
Zobraziť predchádzajúcu tému Zobraziť nasledujúcu tému Návrat hore 
Strana 1 z 1

Povolenie tohoto fóra:Nemôžete odpovedať na témy v tomto fóre.
Vsetko zadarmo :: .::Download filmy::. :: .::Filmy s ceskym a slovenskym dabingom::.-
Prejdi na: