Vsetko zadarmo

Vsetko zadarmo
 
DomovFAQHľadaťRegistráciaZoznam užívateľovUžívateľské skupinyPrihlásenie

Share | 
 

 Captain America: První Avenger / Captain America (2011)

Zobraziť predchádzajúcu tému Zobraziť nasledujúcu tému Goto down 
AutorSpráva
aismen
Mega Uploader
Mega Uploader


Počet príspevkov : 703
Registration date : 16.04.2008

OdoslaťPredmet: Captain America: První Avenger / Captain America (2011)   So október 15, 2011 10:41 pm

Captain America: Prvý Avenger
Captain America: The First Avenger
Captain America: První Avenger


Akční / Dobrodružný / Sci-Fi
USA, 2011, 124 min

CSFD

Režie:Joe Johnston
Hudba:Alan Silvestri
Hrají:Chris Evans, Hugo Weaving, Tommy Lee Jones, Hayley Atwell, Stanley Tucci, Sebastian Stan, Dominic Cooper, Neal McDonough, Toby Jones, Anatole Taubman, Richard Armitage, Natalie Dormer, Derek Luke, JJ Feild, Amanda Righetti, Samuel L. Jackson, Stan Lee

Steve Rogers (Chris Evans) je idealistický mladík, který stejně jako drtivá většina jeho vrstevníků touží vstoupit do armády, aby mohl Americe pomoci zdolat nacisty, až se jeho země zapojí do Druhé světové války. Jenže nemá sebemenší šanci, protože je podměrečný a neduživý a jediným jeho předpokladem je zarputilost, s jakou se nechává opakovaně vyhazovat od odvodových komisí. Ta ve finále rozhodne o tom, že ho vyberou jako vhodného kandidáta pro unikátní vědecký experiment, který má Americe produkovat Supervojáky. Jeho premiéra se vydaří a ze Stevea se díky vědeckému týmu vedeném Dr. Erskinem (Stanley Tucci) stane dokonalá lidská bytost. Na boj s nacisty přesto nedojde, protože se zjeví mnohem nebezpečnější nepřítel. Tajná organizace HYDRA, vedená všehoschopným gaunerem Johannem Schmidtem (Hugo Weaving), totiž začala spřádat vlastní plány na ovládnutí světa. Jejich nedílnou součástí má být i tajná formule Dr. Erskina na výrobu Supervojáků. Steve Rogers dostane štít, který se stane jeho poznávacím znamením, skupinku schopných parťáků a vyrazí do mise, která mu může zajistit nesmrtelnost. Nebo přinést smrt.
1,58GB
INFO:
kód:
Format                          : AVI
Format/Info                      : Audio Video Interleave
File size                        : 1.59 GiB
Duration                        : 2h 4mn
Overall bit rate                : 1 831 Kbps

Video
ID                              : 0
Format                          : MPEG-4 Visual
Format profile                  : Advanced Simple@L5
Format settings, BVOP            : 2
Format settings, QPel            : No
Format settings, GMC            : No warppoints
Format settings, Matrix          : Default (MPEG)
Codec ID                        : XVID
Codec ID/Hint                    : XviD
Duration                        : 2h 4mn
Bit rate                        : 1 182 Kbps
Width                            : 640 pixels
Height                          : 272 pixels
Display aspect ratio            : 2.35:1
Frame rate                      : 23.976 fps
Color space                      : YUV
Chroma subsampling              : 4:2:0
Bit depth                        : 8 bits
Scan type                        : Progressive
Compression mode                : Lossy
Bits/(Pixel*Frame)              : 0.283
Stream size                      : 1.03 GiB (65%)
Writing library                  : XviD 1.2.1 (UTC 2008-12-04)

Audio
ID                              : 1
Format                          : AC-3
Format/Info                      : Audio Coding 3
Mode extension                  : CM (complete main)
Codec ID                        : 2000
Duration                        : 2h 4mn
Bit rate mode                    : Constant
Bit rate                        : 640 Kbps
Channel(s)                      : 6 channels
Channel positions                : Front: L C R, Side: L R, LFE
Sampling rate                    : 48.0 KHz
Bit depth                        : 16 bits
Compression mode                : Lossy
Stream size                      : 569 MiB (35%)
Alignment                        : Aligned on interleaves
Interleave, duration            : 42 ms (1.00 video frame)

DOWNLOAD:
hellshare
kód:
http://download.hellshare.sk/captain-america-2011-avi/3798947

euroshare
kód:
http://euroshare.eu/file/1950676/captain_america_2011.avi

Upnito
kód:
http://www.upnito.sk/subor/1bdef45bd677f15d60dcdacae05fa87e.html
http://www.upnito.sk/subor/ec6ecd05c049e583abd97855c346ad57.html
http://www.upnito.sk/subor/0caf35d46ae336c8c8b7cb952e7c966a.html

712MB
INFO:
kód:
Format                          : AVI
Format/Info                      : Audio Video Interleave
File size                        : 712 MiB
Duration                        : 2h 4mn
Overall bit rate                : 802 Kbps
Writing application              : VirtualDubMod 1.5.10.2 (build 2540/release)
Writing library                  : VirtualDubMod build 2540/release

Video
ID                              : 0
Format                          : MPEG-4 Visual
Format profile                  : Advanced Simple@L5
Format settings, BVOP            : 4
Format settings, QPel            : No
Format settings, GMC            : No warppoints
Format settings, Matrix          : Default (H.263)
Muxing mode                      : Packed bitstream
Codec ID                        : XVID
Codec ID/Hint                    : XviD
Duration                        : 2h 4mn
Bit rate                        : 664 Kbps
Width                            : 640 pixels
Height                          : 272 pixels
Display aspect ratio            : 2.35:1
Frame rate                      : 23.976 fps
Color space                      : YUV
Chroma subsampling              : 4:2:0
Bit depth                        : 8 bits
Scan type                        : Progressive
Compression mode                : Lossy
Bits/(Pixel*Frame)              : 0.159
Stream size                      : 590 MiB (83%)
Writing library                  : XviD 64

Audio
ID                              : 1
Format                          : MPEG Audio
Format version                  : Version 1
Format profile                  : Layer 3
Mode                            : Joint stereo
Mode extension                  : MS Stereo
Codec ID                        : 55
Codec ID/Hint                    : MP3
Duration                        : 2h 4mn
Bit rate mode                    : Constant
Bit rate                        : 128 Kbps
Channel(s)                      : 2 channels
Sampling rate                    : 48.0 KHz
Compression mode                : Lossy
Delay relative to video          : 24ms
Stream size                      : 114 MiB (16%)
Alignment                        : Aligned on interleaves
Interleave, duration            : 42 ms (1.00 video frame)
Interleave, preload duration    : 504 ms

DOWNLOAD:
hellshare
kód:
http://download.hellshare.sk/captain-america-2011-cz-avi/3799477

euroshare
kód:
http://euroshare.eu/file/1950730/captain_america_2011_cz.avi

Upnito
kód:
http://www.upnito.sk/subor/ca085d03b833e7e9a1528ae94c7dbff1.html

BEZ HESLA
Návrat hore Goto down
Zobrazit informácie o autorovi http://warnerfilm.forumn.org
 
Captain America: První Avenger / Captain America (2011)
Zobraziť predchádzajúcu tému Zobraziť nasledujúcu tému Návrat hore 
Strana 1 z 1

Povolenie tohoto fóra:Nemôžete odpovedať na témy v tomto fóre.
Vsetko zadarmo :: .::Download filmy::. :: .::Filmy s ceskym a slovenskym dabingom::.-
Prejdi na: