Vsetko zadarmo

Vsetko zadarmo
 
DomovFAQHľadaťRegistráciaZoznam užívateľovUžívateľské skupinyPrihlásenie

Share | 
 

 Švindlíři / Podvodníci / Matchstick Men (2003)

Zobraziť predchádzajúcu tému Zobraziť nasledujúcu tému Goto down 
AutorSpráva
aismen
Mega Uploader
Mega Uploader


Počet príspevkov : 703
Registration date : 16.04.2008

OdoslaťPredmet: Švindlíři / Podvodníci / Matchstick Men (2003)   So október 15, 2011 5:53 pm

Podvodníci
Matchstick Men
Švindlíři


Krimi / Drama / Komedie / Thriller
USA, 2003, 116 min

CSFD

Režie:Ridley Scott
Hudba:Hans Zimmer
Hrají:Nicolas Cage, Sam Rockwell, Alison Lohman, Bruce Altman, Bruce McGill, Jenny O'Hara, Steve Eastin, Beth Grant, Sheila Kelley, Fran Kranz, Tim Maculan, Melora Walters

Roy a Frankie sú podvodníci, ktorí už dlhé roky tvoria partnerov pri elegantných zločinoch. Poznajú jeden druhého, akoby boli bratia a majú dohodnuté určité pravidlá hry. Roy je starostlivý a šetrí každú penny. Trpí poruchou akejsi posadnutosti a bez liekov nie je schopný nič robiť. Frankie je naopak dobrodruh, ktorý je večne po niečom hladný. Chce donútiť Roya hrať špinavú hru, čo sa Royovi nepozdáva. V tom sa objavuje Angela - Royova dcéra v teenagerskom veku a rozvráti jeho starostlivo naplánovaný život. A k tomu všetkému sa chce naučiť rodinné remeslo...

INFO:
kód:
Format                          : AVI
Format/Info                      : Audio Video Interleave
File size                        : 763 MiB
Duration                        : 1h 51mn
Overall bit rate                : 958 Kbps

Video
ID                              : 0
Format                          : MPEG-4 Visual
Format profile                  : Advanced Simple@L5
Format settings, BVOP            : 2
Format settings, QPel            : No
Format settings, GMC            : No warppoints
Format settings, Matrix          : Default (H.263)
Muxing mode                      : Packed bitstream
Codec ID                        : XVID
Codec ID/Hint                    : XviD
Duration                        : 1h 51mn
Bit rate                        : 754 Kbps
Width                            : 720 pixels
Height                          : 480 pixels
Display aspect ratio            : 3:2
Frame rate                      : 29.970 fps
Standard                        : NTSC
Color space                      : YUV
Chroma subsampling              : 4:2:0
Bit depth                        : 8 bits
Scan type                        : Progressive
Compression mode                : Lossy
Bits/(Pixel*Frame)              : 0.073
Stream size                      : 601 MiB (79%)
Writing library                  : XviD 1.2.0.dev45 (UTC 2006-07-10)

Audio
ID                              : 1
Format                          : MPEG Audio
Format version                  : Version 1
Format profile                  : Layer 3
Codec ID                        : 55
Codec ID/Hint                    : MP3
Duration                        : 1h 51mn
Bit rate mode                    : Constant
Bit rate                        : 192 Kbps
Channel(s)                      : 2 channels
Sampling rate                    : 44.1 KHz
Compression mode                : Lossy
Delay relative to video          : 26ms
Stream size                      : 153 MiB (20%)
Alignment                        : Split accross interleaves
Interleave, duration            : 33 ms (1.00 video frame)
Title                            : Audio Stream
Writing library                  : LAME3.92

DOWNLOAD:
euroshare
kód:
http://euroshare.eu/file/1950288/vindliri.avi

Upnito
kód:
http://www.upnito.sk/subor/972f895e991d3d70038b56d2cd891ce1.html


BEZ HESLA
Návrat hore Goto down
Zobrazit informácie o autorovi http://warnerfilm.forumn.org
 
Švindlíři / Podvodníci / Matchstick Men (2003)
Zobraziť predchádzajúcu tému Zobraziť nasledujúcu tému Návrat hore 
Strana 1 z 1

Povolenie tohoto fóra:Nemôžete odpovedať na témy v tomto fóre.
Vsetko zadarmo :: .::Download filmy::. :: .::Filmy s ceskym a slovenskym dabingom::.-
Prejdi na: