Vsetko zadarmo

Vsetko zadarmo
 
DomovFAQHľadaťRegistráciaZoznam užívateľovUžívateľské skupinyPrihlásenie

Share | 
 

 Opustit Las Vegas / Zanechať Las Vegas / Leaving Las Vegas

Zobraziť predchádzajúcu tému Zobraziť nasledujúcu tému Goto down 
AutorSpráva
aismen
Mega Uploader
Mega Uploader


Počet príspevkov : 703
Registration date : 16.04.2008

OdoslaťPredmet: Opustit Las Vegas / Zanechať Las Vegas / Leaving Las Vegas   So október 15, 2011 5:41 pm

Zanechať Las Vegas
Leaving Las Vegas
Leaving Las Vegas
Opustit Las Vegas


Drama / Romantický
USA / Francie / Velká Británie, 1995, 111 min

CSFD

Režie:Mike Figgis
Hrají:Nicolas Cage, Elisabeth Shue, Julian Sands, Steven Weber, Valeria Golino, Graham Beckel, Carey Lowell, Vincent Ward, Lucinda Jenney, French Stewart, Ed Lauter, Mike Figgis, R. Lee Ermey, Mariska Hargitay, Danny Huston, Laurie Metcalf, Paul Quinn, Shawnee Smith, Bob Rafelson, Xander Berkeley, Michael A. Goorjian, Emily Procter, Thomas Kopache, Richard Lewis, Jeremy Jordan, Gordon Michaels

Americké sugestivní psychologické drama o lásce, alkoholu a zmařeném životě, natočené podle autobiografické předlohy Johna OBriena. Je to hluboký a citlivý příběh osamělého scenáristy Bena, kterého opustila žena a jeho postavení v Hollywoodu je též na vážkách. Ben se snaží zapomenout. Utíká do blyštivého světa Las Vegas a do alkoholu. Atraktivní Sera s ním prožije fantastickou noc a snaží se ho dostat z alkoholické závislosti.

INFO:
kód:
Format                          : AVI
Format/Info                      : Audio Video Interleave
File size                        : 685 MiB
Duration                        : 1h 46mn
Overall bit rate                : 900 Kbps
Writing library                  : VirtualDub build 12667/release

Video
ID                              : 0
Format                          : MPEG-4 Visual
Codec ID                        : DIV3
Codec ID/Hint                    : DivX 3 Low
Duration                        : 1h 46mn
Bit rate                        : 826 Kbps
Width                            : 352 pixels
Height                          : 288 pixels
Display aspect ratio            : 1.222
Frame rate                      : 25.000 fps
Standard                        : PAL
Color space                      : YUV
Chroma subsampling              : 4:2:0
Bit depth                        : 8 bits
Compression mode                : Lossy
Bits/(Pixel*Frame)              : 0.326
Stream size                      : 629 MiB (92%)

Audio
ID                              : 1
Format                          : MPEG Audio
Format version                  : Version 1
Format profile                  : Layer 3
Codec ID                        : 55
Codec ID/Hint                    : MP3
Duration                        : 1h 46mn
Bit rate mode                    : Constant
Bit rate                        : 64.0 Kbps
Channel(s)                      : 1 channel
Sampling rate                    : 44.1 KHz
Compression mode                : Lossy
Stream size                      : 48.5 MiB (7%)
Alignment                        : Split accross interleaves
Interleave, duration            : 40 ms (1.00 video frame)
Interleave, preload duration    : 447 ms

DOWNLOAD:
euroshare
kód:
http://euroshare.eu/file/1950256/opustit_las_vegas.avi

Upnito
kód:
http://www.upnito.sk/subor/6221f8357f8ab9fe17a65cb1f48f832b.html


BEZ HESLA
Návrat hore Goto down
Zobrazit informácie o autorovi http://warnerfilm.forumn.org
 
Opustit Las Vegas / Zanechať Las Vegas / Leaving Las Vegas
Zobraziť predchádzajúcu tému Zobraziť nasledujúcu tému Návrat hore 
Strana 1 z 1

Povolenie tohoto fóra:Nemôžete odpovedať na témy v tomto fóre.
Vsetko zadarmo :: .::Download filmy::. :: .::Filmy s ceskym a slovenskym dabingom::.-
Prejdi na: