Vsetko zadarmo

Vsetko zadarmo
 
DomovFAQHľadaťRegistráciaZoznam užívateľovUžívateľské skupinyPrihlásenie

Share | 
 

 Kód Navajo / Windtalkers (2002)

Zobraziť predchádzajúcu tému Zobraziť nasledujúcu tému Goto down 
AutorSpráva
aismen
Mega Uploader
Mega Uploader


Počet príspevkov : 703
Registration date : 16.04.2008

OdoslaťPredmet: Kód Navajo / Windtalkers (2002)   So október 15, 2011 5:27 pm

Kód Navajo
Windtalkers
Kód Navajo


Akční / Drama / Válečný
USA, 2002, 134 min

CSFD

Režie:John Woo
Hudba:James Horner
Hrají:Nicolas Cage, Adam Beach, Peter Stormare, Noah Emmerich, Mark Ruffalo, Brian Van Holt, Martin Henderson, Roger Willie, Frances O'Connor, Christian Slater, Jason Isaacs, Kevin Cooney, Holmes Osborne, Jeff Davis, Jeremy Davidson, Matthew Junmar

8. prosince 1941, den po Pearl Harboru, vyhlašují Spojené státy válku Japonsku. Elitní námořní jednotky byly aktivovány, aby vybojovaly bitvy v Pacifiku. Bitvy, ve kterých nezáleželo jenom na bojové strategii a kvalitě zbraní, ale také na chytrosti a připravenosti vojáků. V roce 1942 bylo do americké armády k námořnictvu naverbováno několik set Navajů. Ti byli prvotřídně vyškoleni ke kódování strategických zpráv ve svém jazyce a stali se tak tajnými zbraněmi proti nepříteli. Odvážného seržanta Joe Enderse (Nicolas Cage) potkáváme ve válečném lazaretu. Na Šalamounových ostrovech byl těžce zraněn a neslyší na jedno ucho. Scéna, při níž k zranění v guadalcanalském rákosí došlo, se mu stále jako film vrací zpět. Joe je rozhodnut se za každou cenu vrátit na bojiště, což se mu s pomocí zamilované sestřičky podaří. Je přidělen k mariňácké jednotce a společníkem na život a na smrt se mu stává Navajo Ben Yahzee (Adam Beach). A bojovým heslem je příkaz: Kód Navajo nesmí být za žádnou cenu prozrazen...

INFO:
kód:
Format                          : AVI
Format/Info                      : Audio Video Interleave
File size                        : 746 MiB
Duration                        : 2h 8mn
Overall bit rate                : 811 Kbps
Writing application              : VirtualDubMod 1.5.4.1 (build 2178/release)
Writing library                  : VirtualDubMod build 2178/release

Video
ID                              : 0
Format                          : MPEG-4 Visual
Format settings, BVOP            : 1
Format settings, QPel            : No
Format settings, GMC            : No warppoints
Format settings, Matrix          : Default (H.263)
Muxing mode                      : Packed bitstream
Codec ID                        : DX50
Codec ID/Hint                    : DivX 5
Duration                        : 2h 8mn
Bit rate                        : 664 Kbps
Width                            : 512 pixels
Height                          : 208 pixels
Display aspect ratio            : 2.462
Frame rate                      : 25.000 fps
Color space                      : YUV
Chroma subsampling              : 4:2:0
Bit depth                        : 8 bits
Scan type                        : Progressive
Compression mode                : Lossy
Bits/(Pixel*Frame)              : 0.249
Stream size                      : 611 MiB (82%)
Writing library                  : DivX 6.5.0 (UTC 2006-12)

Audio
ID                              : 1
Format                          : MPEG Audio
Format version                  : Version 1
Format profile                  : Layer 3
Mode                            : Joint stereo
Mode extension                  : MS Stereo
Codec ID                        : 55
Codec ID/Hint                    : MP3
Duration                        : 2h 8mn
Bit rate mode                    : Variable
Bit rate                        : 134 Kbps
Nominal bit rate                : 144 Kbps
Channel(s)                      : 2 channels
Sampling rate                    : 48.0 KHz
Compression mode                : Lossy
Stream size                      : 123 MiB (17%)
Alignment                        : Aligned on interleaves
Interleave, duration            : 24 ms (0.60 video frame)
Interleave, preload duration    : 137 ms
Writing library                  : LAME3.97
Encoding settings                : -m j -V 4 -q 2 -lowpass 17.5 --abr 144
Language                        : Czech

DOWNLOAD:
Upnito
kód:
http://www.upnito.sk/subor/2d086d4b5ffc81bcdc247b958c994eb6.html

euroshare
kód:
http://euroshare.eu/file/1950229/kod_navajo.avi

BEZ HESLA
Návrat hore Goto down
Zobrazit informácie o autorovi http://warnerfilm.forumn.org
 
Kód Navajo / Windtalkers (2002)
Zobraziť predchádzajúcu tému Zobraziť nasledujúcu tému Návrat hore 
Strana 1 z 1

Povolenie tohoto fóra:Nemôžete odpovedať na témy v tomto fóre.
Vsetko zadarmo :: .::Download filmy::. :: .::Filmy s ceskym a slovenskym dabingom::.-
Prejdi na: