Vsetko zadarmo

Vsetko zadarmo
 
DomovFAQHľadaťRegistráciaZoznam užívateľovUžívateľské skupinyPrihlásenie

Share | 
 

 Chlapec v modrém/Boy in Blue, The(1986)

Zobraziť predchádzajúcu tému Zobraziť nasledujúcu tému Goto down 
AutorSpráva
aismen
Mega Uploader
Mega Uploader


Počet príspevkov : 703
Registration date : 16.04.2008

OdoslaťPredmet: Chlapec v modrém/Boy in Blue, The(1986)   So október 15, 2011 5:14 pm

Boy in Blue, The
Chlapec v modrém


Drama / Sportovní / Životopisný
Kanada, 1986, 93 min

CSFD

Režie:Charles Jarrott
Hrají:Nicolas Cage, Cynthia Dale, Christopher Plummer, David Naughton, Melody Anderson, Jeff Wincott, Kim Coates, Ted Dykstra, Michel Perron, John Dunn-Hill, Diane Hollingsworth

Film se odehrává v životě Neda Hanlana (Nicolas Cage), kanadského veslaře a světového šampiona koncem 19. století. V jeho divokém mládí ho adoptuje sázkař jménem Bill (David Naughton), který chlapce podporuje ve veslařských závodech jen pro vlastní zisk. Kontrolu nad Hanlanovou kariérou převzal nemilosrdný podnikatel Knox (Christopher Plummer). Když Hanlan zjistí jak ho Knox zneužívá, opustí ho a zaměstná prvního čestného člověka kterého potká, kterým byl vynálezce a spekulant Walter (Sean Sullivan). Hanlanův uspěch byl mimo jiné i sňatek s Margaret (Cynthia Dale), Knoxovou nepolapitelnou neteří.

INFO:
kód:
Format                          : AVI
Format/Info                      : Audio Video Interleave
File size                        : 817 MiB
Duration                        : 1h 32mn
Overall bit rate                : 1 233 Kbps
Movie name                      : DVD_VOLUME.Title1.DVDRip
Director                        : Luboš
Writing application              : Lavf51.19.0
Original source form/Name        : DVD_VOLUME

Video
ID                              : 0
Format                          : MPEG-4 Visual
Format profile                  : Simple@L3
Format settings, BVOP            : No
Format settings, QPel            : No
Format settings, GMC            : No warppoints
Format settings, Matrix          : Default (H.263)
Codec ID                        : XVID
Codec ID/Hint                    : XviD
Duration                        : 1h 32mn
Bit rate                        : 966 Kbps
Width                            : 704 pixels
Height                          : 530 pixels
Display aspect ratio            : 4:3
Frame rate                      : 25.000 fps
Color space                      : YUV
Chroma subsampling              : 4:2:0
Bit depth                        : 8 bits
Scan type                        : Progressive
Compression mode                : Lossy
Bits/(Pixel*Frame)              : 0.104
Stream size                      : 640 MiB (78%)
Writing library                  : XviD 1.1.2 (UTC 2006-11-01)

Audio
ID                              : 1
Format                          : AC-3
Format/Info                      : Audio Coding 3
Mode extension                  : CM (complete main)
Codec ID                        : 2000
Duration                        : 1h 32mn
Bit rate mode                    : Constant
Bit rate                        : 256 Kbps
Channel(s)                      : 2 channels
Channel positions                : Front: L R
Sampling rate                    : 48.0 KHz
Bit depth                        : 16 bits
Compression mode                : Lossy
Stream size                      : 170 MiB (21%)
Alignment                        : Aligned on interleaves
Interleave, duration            : 32 ms (0.80 video frame)

DOWNLOAD:
Upnito
kód:
http://www.upnito.sk/subor/0c1b14217bf9decf53c32a5e6e8eb489.html

euroshare
kód:
http://euroshare.eu/file/1950211/chlapec_v_modrem.avi

hellshare
kód:
http://download.hellshare.sk/chlapec-v-modrem-avi/3798041

BEZ HESLA
Návrat hore Goto down
Zobrazit informácie o autorovi http://warnerfilm.forumn.org
 
Chlapec v modrém/Boy in Blue, The(1986)
Zobraziť predchádzajúcu tému Zobraziť nasledujúcu tému Návrat hore 
Strana 1 z 1

Povolenie tohoto fóra:Nemôžete odpovedať na témy v tomto fóre.
Vsetko zadarmo :: .::Download filmy::. :: .::Filmy s ceskym a slovenskym dabingom::.-
Prejdi na: