Vsetko zadarmo

Vsetko zadarmo
 
DomovFAQHľadaťRegistráciaZoznam užívateľovUžívateľské skupinyPrihlásenie

Share | 
 

 Čarodějův učeň / Sorcerer's Apprentice, The (2010)

Zobraziť predchádzajúcu tému Zobraziť nasledujúcu tému Goto down 
AutorSpráva
aismen
Mega Uploader
Mega Uploader


Počet príspevkov : 703
Registration date : 16.04.2008

OdoslaťPredmet: Čarodějův učeň / Sorcerer's Apprentice, The (2010)   So október 15, 2011 3:51 pm

Čarodejov učeň
Sorcerer's Apprentice, The
Čarodějův učeň


Akční / Dobrodružný / Drama / Fantasy
USA, 2010, 105 min

CSFD

Režie:Jon Turteltaub
Hudba:Trevor Rabin
Hrají:Nicolas Cage, Jay Baruchel, Monica Bellucci, Alfred Molina, Toby Kebbell, Ethan Peck, Teresa Palmer, Peyton List, Omar Benson Miller, Jake Cherry, Gregory Woo, Manish Dayal, Ian McShane

Balthazar Blake (Nicolas Cage) je čarodějným mistrem, který se v současném Manhattanu snaží ubránit město před svým úhlavním nepřítelem Maximem Horvathem (Alfred Molina). Balthazar na to ale sám nestačí, a proto vyhledá pomoc Davea Stutlera (Jay Baruchel), zdánlivě obyčejného člověka, který v sobě ale ukrývá netušené možnosti, a učiní z něj navzdory jeho pochybám svého učně. Čaroděj svého nedobrovolného žáka v rychlosti zasvětí do základů tajného umění magie a kouzel a společně se tato neobvyklá dvojice pokouší s pomocí svých schopností postavit jedněm z nejagresivnějších a nejzákeřnějších čarodějů všech dob. Dave je nucen v sobě najít veškerou odvahu k tomu, aby jako Čarodějův učeň svůj výcvik přežil, zachránil město a získal srdce své vyvolené.

INFO:
kód:
Format                          : AVI
Format/Info                      : Audio Video Interleave
File size                        : 953 MiB
Duration                        : 1h 49mn
Overall bit rate                : 1 222 Kbps
Writing application              : VirtualDubMod 1.5.10.2 (build 2540/release)
Writing library                  : VirtualDubMod build 2540/release

Video
ID                              : 0
Format                          : MPEG-4 Visual
Format profile                  : Advanced Simple@L5
Format settings, BVOP            : 3
Format settings, QPel            : No
Format settings, GMC            : No warppoints
Format settings, Matrix          : Default (H.263)
Muxing mode                      : Packed bitstream
Codec ID                        : XVID
Codec ID/Hint                    : XviD
Duration                        : 1h 49mn
Bit rate                        : 956 Kbps
Width                            : 720 pixels
Height                          : 304 pixels
Display aspect ratio            : 2.35:1
Frame rate                      : 23.976 fps
Color space                      : YUV
Chroma subsampling              : 4:2:0
Bit depth                        : 8 bits
Scan type                        : Progressive
Compression mode                : Lossy
Bits/(Pixel*Frame)              : 0.182
Stream size                      : 746 MiB (78%)
Writing library                  : XviD 1.2.0.dev47 (UTC 2006-11-01)

Audio
ID                              : 1
Format                          : AC-3
Format/Info                      : Audio Coding 3
Mode extension                  : CM (complete main)
Codec ID                        : 2000
Duration                        : 1h 49mn
Bit rate mode                    : Constant
Bit rate                        : 256 Kbps
Channel(s)                      : 2 channels
Channel positions                : Front: L R
Sampling rate                    : 48.0 KHz
Bit depth                        : 16 bits
Compression mode                : Lossy
Stream size                      : 200 MiB (21%)
Alignment                        : Split accross interleaves
Interleave, duration            : 42 ms (1.00 video frame)
Interleave, preload duration    : 500 ms

DOWNLOAD:
Upnito
kód:
http://www.upnito.sk/subor/6ab85fc4632b884e536b3cafd314fdba.html

euroshare
kód:
http://euroshare.eu/file/1950188/arodejuv_ucen.avi

BEZ HESLA
Návrat hore Goto down
Zobrazit informácie o autorovi http://warnerfilm.forumn.org
 
Čarodějův učeň / Sorcerer's Apprentice, The (2010)
Zobraziť predchádzajúcu tému Zobraziť nasledujúcu tému Návrat hore 
Strana 1 z 1

Povolenie tohoto fóra:Nemôžete odpovedať na témy v tomto fóre.
Vsetko zadarmo :: .::Download filmy::. :: .::Filmy s ceskym a slovenskym dabingom::.-
Prejdi na: