Vsetko zadarmo

Vsetko zadarmo
 
DomovFAQHľadaťRegistráciaZoznam užívateľovUžívateľské skupinyPrihlásenie

Share | 
 

  60 sekund / Gone in Sixty Seconds (2000)

Zobraziť predchádzajúcu tému Zobraziť nasledujúcu tému Goto down 
AutorSpráva
aismen
Mega Uploader
Mega Uploader


Počet príspevkov : 703
Registration date : 16.04.2008

OdoslaťPredmet: 60 sekund / Gone in Sixty Seconds (2000)   So október 15, 2011 3:35 pm

60 sekúnd
Gone in Sixty Seconds
60 sekund


Akční / Krimi / Thriller
USA, 2000, 111 min (Director's cut: 122 min)

CSFD

Režie:Dominic Sena
Hudba:Trevor Rabin
Hrají:Nicolas Cage, Giovanni Ribisi, Angelina Jolie, William Lee Scott, Scott Caan, James Duval, Will Patton, Delroy Lindo, Timothy Olyphant, Chi McBride, Robert Duvall, Christopher Eccleston, Vinnie Jones, Grace Zabriskie, Jaime Bergman, Harry Van Gorkum, Frances Fisher, Stephen Shellen, Arye Gross, Master P, David 'Shark' Fralick, Carmen Argenziano, Brad William Henke, John Carroll Lynch, Michael Pena, Ken Jenkins, Cosimo Fusco, Bodhi Elfman

Randall "Memphis" Raines (Nicolas Cage) býval tím nejlepším zlodějem aut ve státech. Teď už sice nějaký čas seká dobrotu, ale pod slupkou sympatického slušňáka stále číhá dravec připravený kdykoliv zaútočit. To se skvěle hodí ve chvíli, kdy se Randallův mladší bratr ošklivě zaplete s krutým gangsterem a svou neopatrností ho připraví o desítky kradených luxusních aut připravených k prodeji. Pokud nemá bráška zemřít, musí se Randall vrátit k řemeslu a během tří dnů šlohnout pro gangstera padesátku drahých a náležitě zabezpečených automobilů. Se starou partou kamarádů v čele se Sarou (Angelina Jolieová) by to Randall určitě dokázal, kdyby se mu ovšem na paty nelepili vlezlí poldové. Je na čase se připoutat a šlápnout na plyn...

INFO:
kód:
Format                          : AVI
Format/Info                      : Audio Video Interleave
File size                        : 684 MiB
Duration                        : 1h 53mn
Overall bit rate                : 845 Kbps
Writing library                  : VirtualDub build 11759/release

Video
ID                              : 0
Format                          : MPEG-4 Visual
Codec ID                        : DIV3
Codec ID/Hint                    : DivX 3 Low
Duration                        : 1h 53mn
Bit rate                        : 707 Kbps
Width                            : 640 pixels
Height                          : 304 pixels
Display aspect ratio            : 2.2:1
Frame rate                      : 25.000 fps
Color space                      : YUV
Chroma subsampling              : 4:2:0
Bit depth                        : 8 bits
Compression mode                : Lossy
Bits/(Pixel*Frame)              : 0.145
Stream size                      : 572 MiB (84%)

Audio
ID                              : 1
Format                          : MPEG Audio
Format version                  : Version 1
Format profile                  : Layer 3
Codec ID                        : 55
Codec ID/Hint                    : MP3
Duration                        : 1h 53mn
Bit rate mode                    : Constant
Bit rate                        : 128 Kbps
Channel(s)                      : 2 channels
Sampling rate                    : 48.0 KHz
Compression mode                : Lossy
Stream size                      : 104 MiB (15%)
Alignment                        : Split accross interleaves
Interleave, duration            : 40 ms (1.00 video frame)
Interleave, preload duration    : 451 ms

DOWNLOAD:
Upnito
kód:
http://www.upnito.sk/subor/c9b1d1b446683b6998c9df78b50a2547.html

euroshare
kód:
http://euroshare.eu/file/1950162/60_sekund.avi

BEZ HESLA
Návrat hore Goto down
Zobrazit informácie o autorovi http://warnerfilm.forumn.org
 
60 sekund / Gone in Sixty Seconds (2000)
Zobraziť predchádzajúcu tému Zobraziť nasledujúcu tému Návrat hore 
Strana 1 z 1

Povolenie tohoto fóra:Nemôžete odpovedať na témy v tomto fóre.
Vsetko zadarmo :: .::Download filmy::. :: .::Filmy s ceskym a slovenskym dabingom::.-
Prejdi na: