Vsetko zadarmo

Vsetko zadarmo
 
DomovFAQHľadaťRegistráciaZoznam užívateľovUžívateľské skupinyPrihlásenie

Share | 
 

 8MM (1999)

Zobraziť predchádzajúcu tému Zobraziť nasledujúcu tému Goto down 
AutorSpráva
aismen
Mega Uploader
Mega Uploader


Počet príspevkov : 703
Registration date : 16.04.2008

OdoslaťPredmet: 8MM (1999)   So október 15, 2011 3:19 pm

8 MM
8MM
8 MM


Krimi / Mysteriózní / Thriller
USA / Německo, 1999, 123 min

CSFD

Režie:Joel Schumacher
Hudba:Mychael Danna
Hrají:Nicolas Cage, Joaquin Phoenix, James Gandolfini, Peter Stormare, Anthony Heald, Chris Bauer, Catherine Keener, Jack Betts, Amy Morton, Norman Reedus, Bob Clendenin

Soukromý detektiv Tom Welles (Nicolas Cage) dostává svůj "velký" případ. Vdova po úctyhodném miliardáři našla v manželově sejfu 8mm amatérský film se sadistickou vraždou mladé dívky. Jde o tu nejtvrdší pornografii v té nejzvrhlejší podobě. Detektiv má najít odpověď na děsivou otázku o původu filmu. Jedná se o dokonale natočené superhardcore porno, nebo se tu před očima šokovaného diváka odehrává skutečná vražda? Tom Welles se loučí s manželkou a malou dcerkou a z poklidu svého idylického domova v pennsylvánském zapadákově se vydává po stopách 8 mm filmu do Los Angeles. Už při prvním seznámení se zvrhle fascinujícím polosvětem pornografie zjistí, že za patřičný obnos lze ukojit i tu nejodpornější sadistickou choutku. Jeho pátrání po osudech nezvěstné dívky z filmu se rychle mění v šokující a smrtelně nebezpečnou cestu napříč devíti kruhy pozemského pekla. I ten, kdo vyvázne živý, už nikdy nebude stejný jako dřív

INFO:
kód:
Format                          : AVI
Format/Info                      : Audio Video Interleave
File size                        : 700 MiB
Duration                        : 1h 58mn
Overall bit rate                : 828 Kbps
Writing application              : VirtualDubMod 1.5.4.1 (build 2178/release)
Writing library                  : VirtualDubMod build 2178/release

Video
ID                              : 0
Format                          : MPEG-4 Visual
Format profile                  : Advanced Simple@L5
Format settings, BVOP            : 1
Format settings, QPel            : No
Format settings, GMC            : No warppoints
Format settings, Matrix          : Custom
Codec ID                        : XVID
Codec ID/Hint                    : XviD
Duration                        : 1h 58mn
Bit rate                        : 662 Kbps
Width                            : 688 pixels
Height                          : 304 pixels
Display aspect ratio            : 2.25:1
Frame rate                      : 25.000 fps
Color space                      : YUV
Chroma subsampling              : 4:2:0
Bit depth                        : 8 bits
Scan type                        : Progressive
Compression mode                : Lossy
Bits/(Pixel*Frame)              : 0.127
Stream size                      : 560 MiB (80%)
Writing library                  : XviD 1.1.0 (UTC 2005-11-22)

Audio
ID                              : 1
Format                          : MPEG Audio
Format version                  : Version 1
Format profile                  : Layer 3
Mode                            : Joint stereo
Mode extension                  : MS Stereo
Codec ID                        : 55
Codec ID/Hint                    : MP3
Duration                        : 1h 58mn
Bit rate mode                    : Variable
Bit rate                        : 153 Kbps
Channel(s)                      : 2 channels
Sampling rate                    : 48.0 KHz
Compression mode                : Lossy
Stream size                      : 129 MiB (18%)
Alignment                        : Aligned on interleaves
Interleave, duration            : 24 ms (0.60 video frame)
Interleave, preload duration    : 500 ms

DOWNLOAD:
Upnito
kód:
http://www.upnito.sk/subor/3be0ce397f0659b7af203065a46b8228.html

euroshare
kód:
http://euroshare.eu/file/1950144/8_mm.avi

BEZ HESLA
Návrat hore Goto down
Zobrazit informácie o autorovi http://warnerfilm.forumn.org
 
8MM (1999)
Zobraziť predchádzajúcu tému Zobraziť nasledujúcu tému Návrat hore 
Strana 1 z 1

Povolenie tohoto fóra:Nemôžete odpovedať na témy v tomto fóre.
Vsetko zadarmo :: .::Download filmy::. :: .::Filmy s ceskym a slovenskym dabingom::.-
Prejdi na: