Vsetko zadarmo

Vsetko zadarmo
 
DomovFAQHľadaťRegistráciaZoznam užívateľovUžívateľské skupinyPrihlásenie

Share | 
 

 Vesmírná střední / Monster High (1989)

Zobraziť predchádzajúcu tému Zobraziť nasledujúcu tému Goto down 
AutorSpráva
aismen
Mega Uploader
Mega Uploader


Počet príspevkov : 703
Registration date : 16.04.2008

OdoslaťPredmet: Vesmírná střední / Monster High (1989)   So október 15, 2011 2:53 pm

Monster High
Vesmírná střední


Komedie / Horor / Sci-Fi
USA, 1989, 96 min

CSFD

Hrají:Rhonda Gray, Bob Cady, Phil Fondacaro

Každá vesmírná střední škola má své studenty z jiné galaxie, ale tento semestr má MONtgomery STERling opravdu zvláštní hosty. Když se průměrný americký student Norm Median (DEAN IANDOLI) setkává na začátku zimního semestru s půvabnou studentkou Candace Cainovou (DIANA FRANK), jsou tak do sebe zahledění, že si ani nevšimnou nových galktických studentů. A někteří z nich jsou opravdu divní: oživlý zombie, masožravá rostlina... Poté přichází jejich vůdce, vesmírný terorista, pan Armageddon, s myšlenkou zničit Zemi. Norm musí rychle něco vymyslet. A dostává nápad. Zahrají si basketbalový zápas o osud Země. V sázce je velmi mnoho. Podaří se pozemskému družstvu porazit tým pana A.? Běžte to rychle zjistit!

INFO:
kód:
Format                          : AVI
Format/Info                      : Audio Video Interleave
File size                        : 906 MiB
Duration                        : 1h 24mn
Overall bit rate                : 1 509 Kbps
Writing application              : VirtualDubMod 1.5.10.3 (build 2550/release)
Writing library                  : VirtualDubMod build 2550/release

Video
ID                              : 0
Format                          : MPEG-4 Visual
Format settings, BVOP            : 1
Format settings, QPel            : No
Format settings, GMC            : No warppoints
Format settings, Matrix          : Default (H.263)
Muxing mode                      : Packed bitstream
Codec ID                        : DX50
Codec ID/Hint                    : DivX 5
Duration                        : 1h 24mn
Bit rate                        : 1 046 Kbps
Width                            : 512 pixels
Height                          : 384 pixels
Display aspect ratio            : 4:3
Frame rate                      : 23.976 fps
Color space                      : YUV
Chroma subsampling              : 4:2:0
Bit depth                        : 8 bits
Scan type                        : Progressive
Compression mode                : Lossy
Bits/(Pixel*Frame)              : 0.222
Stream size                      : 629 MiB (69%)
Writing library                  : DivX 5.2.1 (WaffleDay) (UTC 2004-09-08)

Audio #1
ID                              : 1
Format                          : AC-3
Format/Info                      : Audio Coding 3
Mode extension                  : CM (complete main)
Codec ID                        : 2000
Duration                        : 1h 24mn
Bit rate mode                    : Constant
Bit rate                        : 192 Kbps
Channel(s)                      : 2 channels
Channel positions                : Front: L R
Sampling rate                    : 48.0 KHz
Bit depth                        : 16 bits
Compression mode                : Lossy
Stream size                      : 115 MiB (13%)
Alignment                        : Split accross interleaves
Interleave, duration            : 42 ms (1.00 video frame)
Interleave, preload duration    : 500 ms
Language                        : English

Audio #2
ID                              : 2
Format                          : MPEG Audio
Format version                  : Version 1
Format profile                  : Layer 3
Mode                            : Joint stereo
Mode extension                  : MS Stereo
Codec ID                        : 55
Codec ID/Hint                    : MP3
Duration                        : 1h 24mn
Bit rate mode                    : Constant
Bit rate                        : 256 Kbps
Channel(s)                      : 2 channels
Sampling rate                    : 32.0 KHz
Compression mode                : Lossy
Stream size                      : 154 MiB (17%)
Alignment                        : Aligned on interleaves
Interleave, duration            : 42 ms (1.00 video frame)
Interleave, preload duration    : 504 ms
Writing library                  : LAME3.96.1

DOWNLOAD:
hellshare
kód:
http://download.hellshare.sk/vesmirna-stredni-avi/3797487

euroshare
kód:
http://euroshare.eu/file/1950119/vesmirna_stredni.avi

BEZ HESLA
Návrat hore Goto down
Zobrazit informácie o autorovi http://warnerfilm.forumn.org
aismen
Mega Uploader
Mega Uploader


Počet príspevkov : 703
Registration date : 16.04.2008

OdoslaťPredmet: Re: Vesmírná střední / Monster High (1989)   So december 31, 2011 12:39 pm

Monster High
Vesmírná střední




Komedie / Horor / Sci-Fi
USA, 1989, 96 min
CSFD
kód:
http://www.csfd.cz/film/143564-vesmirna-stredni/

Hrají:Rhonda Gray, Bob Cady, Phil Fondacaro

INFO:
kód:
Format            : AVI at 1 509 Kbps
Length            : 906 MiB for 1h 24mn 0s 202ms

Video #0          : MPEG-4 Visual at 1 046 Kbps
Aspect            : 512 x 384 (1.333) at 23.976 fps

Audio #0          : AC-3 at 192 Kbps
Infos            : 2 channels, 48.0 KHz
Language          : en

Audio #1          : MPEG Audio at 256 Kbps
Infos            : 2 channels, 32.0 KHz

DOWNLOAD:
kód:
https://rapidshare.com/files/400461572/Monster_High_by_Dadunka.of.PowerUploaders.avi


kód:
http://x7.to/ns8hdo

kód:
http://www.upnito.sk/subor/1c6e5724d3a88b3b96c2b0711634fa36.html


BEZ HESLA
Návrat hore Goto down
Zobrazit informácie o autorovi http://warnerfilm.forumn.org
 
Vesmírná střední / Monster High (1989)
Zobraziť predchádzajúcu tému Zobraziť nasledujúcu tému Návrat hore 
Strana 1 z 1

Povolenie tohoto fóra:Nemôžete odpovedať na témy v tomto fóre.
Vsetko zadarmo :: .::Download filmy::. :: .::Filmy s ceskym a slovenskym dabingom::.-
Prejdi na: