Vsetko zadarmo

Vsetko zadarmo
 
DomovFAQHľadaťRegistráciaZoznam užívateľovUžívateľské skupinyPrihlásenie

Share | 
 

 Mardi Gras: Jarní prázdniny / Mardi Gras (2010)

Zobraziť predchádzajúcu tému Zobraziť nasledujúcu tému Goto down 
AutorSpráva
aismen
Mega Uploader
Mega Uploader


Počet príspevkov : 703
Registration date : 16.04.2008

OdoslaťPredmet: Mardi Gras: Jarní prázdniny / Mardi Gras (2010)   So október 15, 2011 12:14 pm

Mardi Gras
Mardi Gras: Jarní prázdniny


Komedie
USA, 2010, 85 min

CSFD

Režie:Phil Dornfeld
Hrají:Arielle Kebbel, Carmen Electra, Danneel Harris, Nicholas D'Agosto, Regina Hall, Bret Harrison, Stephanie Honore, Josh Gad

Tři spolužáci studují poslední rok na vysoké, ale zábavy si během školy zatím příliš neužili. Jejich řešení: Výlet na Mardi Gras, kde krásné holky s radostí vyhrnují trička a lahve s alkoholem na veřejnosti nikomu nevadí, ba naopak. Vše se jim poněkud vymkne z rukou, když se navléknou do ženských šatů, vlámou do hotelového pokoje Carmen Electry, účinkují ve skandální erotické show a navíc nechtěně zaútočí fekální bombou v nóbl hotelové hale. Zafunguje kouzlo Mardi Gras a stanou se jejich nejdivočejší fantazie skutečností?

INFO:
kód:
Format                          : AVI
Format/Info                      : Audio Video Interleave
File size                        : 921 MiB
Duration                        : 1h 24mn
Overall bit rate                : 1 514 Kbps
Movie name                      : Mardi.Gras.2011.PAL.DVD9-ELEKTRI4KA.Title2.DVDRip
Writing application              : Lavf52.78.4
Original source form/Name        : Mardi.Gras.2011.PAL.DVD9-ELEKTRI4KA

Video
ID                              : 0
Format                          : MPEG-4 Visual
Format profile                  : Advanced Simple@L5
Format settings, BVOP            : 2
Format settings, QPel            : No
Format settings, GMC            : No warppoints
Format settings, Matrix          : Default (H.263)
Muxing mode                      : Packed bitstream
Codec ID                        : XVID
Codec ID/Hint                    : XviD
Duration                        : 1h 24mn
Bit rate                        : 1 120 Kbps
Width                            : 640 pixels
Height                          : 350 pixels
Display aspect ratio            : 16:9
Frame rate                      : 25.000 fps
Color space                      : YUV
Chroma subsampling              : 4:2:0
Bit depth                        : 8 bits
Scan type                        : Progressive
Compression mode                : Lossy
Bits/(Pixel*Frame)              : 0.200
Stream size                      : 681 MiB (74%)
Writing library                  : XviD 1.2.1 (UTC 2008-12-04)

Audio
ID                              : 1
Format                          : AC-3
Format/Info                      : Audio Coding 3
Mode extension                  : CM (complete main)
Codec ID                        : 2000
Duration                        : 1h 24mn
Bit rate mode                    : Constant
Bit rate                        : 384 Kbps
Channel(s)                      : 6 channels
Channel positions                : Front: L C R, Side: L R, LFE
Sampling rate                    : 48.0 KHz
Bit depth                        : 16 bits
Compression mode                : Lossy
Stream size                      : 233 MiB (25%)
Alignment                        : Aligned on interleaves
Interleave, duration            : 32 ms (0.80 video frame)
Interleave, preload duration    : 32 ms

DOWNLOAD:
hellshare
kód:
http://download.hellshare.sk/mardi-gras-2010-avi/3796752

euroshare
kód:
http://euroshare.eu/file/1949930/mardi_gras_2010.avi

BEZ HESLA
Návrat hore Goto down
Zobrazit informácie o autorovi http://warnerfilm.forumn.org
 
Mardi Gras: Jarní prázdniny / Mardi Gras (2010)
Zobraziť predchádzajúcu tému Zobraziť nasledujúcu tému Návrat hore 
Strana 1 z 1

Povolenie tohoto fóra:Nemôžete odpovedať na témy v tomto fóre.
Vsetko zadarmo :: .::Download filmy::. :: .::Filmy s ceskym a slovenskym dabingom::.-
Prejdi na: