Vsetko zadarmo

Vsetko zadarmo
 
DomovFAQHľadaťRegistráciaZoznam užívateľovUžívateľské skupinyPrihlásenie

Share | 
 

 Mizerové 2 / Bad Boys 2 (2003) HD

Zobraziť predchádzajúcu tému Zobraziť nasledujúcu tému Goto down 
AutorSpráva
aismen
Mega Uploader
Mega Uploader


Počet príspevkov : 703
Registration date : 16.04.2008

OdoslaťPredmet: Mizerové 2 / Bad Boys 2 (2003) HD   So október 15, 2011 12:00 pm

Bad Boys 2
Bad Boys II
Mizerové II


Akční / Komedie / Krimi
USA, 2003, 147 min

CSFD

Režie:Michael Bay
Hudba:Trevor Rabin
Hrají:Martin Lawrence, Will Smith, Jordi Mollà, Gabrielle Union, Peter Stormare, Theresa Randle, Joe Pantoliano, Michael Shannon, Jon Seda, Yul Vazquez, Henry Rollins, Antoni Corone, Reynaldo Gallegos, R.E. Rodgers, Oleg Taktarov, Gregory Bastien, Michael Bay, Megan Fox, Smith Cho, Jasmine Waltz, Omar Avila, Rey Hernandez, Brian Anthony Wilson

Detektivové z oddělení narkotik v Miami Mike Lowrey (Will Smith) a Marcus Burnett (Martin Lawrence) jsou přiděleni k úderné jednotce, jejímž úkolem je zastavit přísun extáze do města. Během vyšetřování shodou okolností odhalí rozsáhlý konspirační plán bezcitného drogového bosse Tapia (Jordi Mollà), který chce rozšířit své impérium a ovládnout obchod s narkotiky v celém městě, přičemž hodlá zabít každého, kdo se mu postaví do cesty. Věci se dále komplikují, když se Marcusova půvabná sestra Syd (Gabrielle Union), tajná agentka vládní organizace pro boj s drogami, dostane během křížové palby do zajetí zločinců, což oba hlavní hrdiny přinutí zajít až na samotnou hranici zákona. Mezi Mikem a Syd se navíc začne odvíjet romantický vztah, který jejího přehnaně starostlivého bratra přívádí k šílenství. Marcus a Mike se však musejí povznést nad rozdíly ve svých povahách a společnými silami svrhnout Tapiu a jeho drogové království. Když se navíc Syd a její tajná identita ocitnou v nebezpečí, je sehrané duo Mizerů jedinou šancí na její vysvobození.

INFO:
kód:
Format                          : Matroska
Format version                  : Version 2
File size                        : 7.77 GiB
Duration                        : 2h 26mn
Overall bit rate                : 7 585 Kbps
Encoded date                    : UTC 2009-08-16 11:13:05
Writing application              : mkvmerge v2.9.7 ('Tenderness') built on Jul  1 2009 18:43:35
Writing library                  : libebml v0.7.7 + libmatroska v0.8.1

Video
ID                              : 1
Format                          : AVC
Format/Info                      : Advanced Video Codec
Format profile                  : High@L5.1
Format settings, CABAC          : Yes
Format settings, ReFrames        : 8 frames
Codec ID                        : V_MPEG4/ISO/AVC
Duration                        : 2h 26mn
Bit rate                        : 6 000 Kbps
Width                            : 1 280 pixels
Height                          : 720 pixels
Display aspect ratio            : 16:9
Frame rate                      : 23.976 fps
Color space                      : YUV
Chroma subsampling              : 4:2:0
Bit depth                        : 8 bits
Scan type                        : Progressive
Bits/(Pixel*Frame)              : 0.272
Stream size                      : 5.99 GiB (77%)
Writing library                  : x264 core 56 svn-680
Encoding settings                : cabac=1 / ref=5 / deblock=1:-3:-2 / analyse=0x3:0x113 / me=umh / subme=6 / brdo=1 / mixed_ref=1 / me_range=16 / chroma_me=1 / trellis=1 / 8x8dct=1 / cqm=2 / deadzone=21,11 / chroma_qp_offset=0 / threads=1 / nr=0 / decimate=1 / mbaff=0 / bframes=3 / b_pyramid=1 / b_adapt=1 / b_bias=0 / direct=3 / wpredb=1 / bime=1 / keyint=250 / keyint_min=25 / scenecut=40 / rc=2pass / bitrate=6000 / ratetol=1.0 / rceq='blurCplx^(1-qComp)' / qcomp=0.60 / qpmin=10 / qpmax=51 / qpstep=4 / cplxblur=20.0 / qblur=0.5 / ip_ratio=1.40 / pb_ratio=1.30
Language                        : English

Audio #1
ID                              : 2
Format                          : DTS
Format/Info                      : Digital Theater Systems
Codec ID                        : A_DTS
Duration                        : 2h 26mn
Bit rate mode                    : Constant
Bit rate                        : 755 Kbps
Channel(s)                      : 6 channels
Channel positions                : Front: L C R, Side: L R, LFE
Sampling rate                    : 48.0 KHz
Bit depth                        : 16 bits
Compression mode                : Lossy
Stream size                      : 792 MiB (10%)
Title                            : DTS
Language                        : English

Audio #2
ID                              : 3
Format                          : AC-3
Format/Info                      : Audio Coding 3
Mode extension                  : CM (complete main)
Codec ID                        : A_AC3
Duration                        : 2h 26mn
Bit rate mode                    : Constant
Bit rate                        : 384 Kbps
Channel(s)                      : 6 channels
Channel positions                : Front: L C R, Side: L R, LFE
Sampling rate                    : 48.0 KHz
Bit depth                        : 16 bits
Compression mode                : Lossy
Stream size                      : 403 MiB (5%)
Title                            : Dolby Digital 5.1
Language                        : English

Audio #3
ID                              : 4
Format                          : AC-3
Format/Info                      : Audio Coding 3
Mode extension                  : CM (complete main)
Codec ID                        : A_AC3
Duration                        : 2h 26mn
Bit rate mode                    : Constant
Bit rate                        : 448 Kbps
Channel(s)                      : 6 channels
Channel positions                : Front: L C R, Side: L R, LFE
Sampling rate                    : 48.0 KHz
Bit depth                        : 16 bits
Compression mode                : Lossy
Delay relative to video          : 28ms
Stream size                      : 470 MiB (6%)
Title                            : Czech

Text #1
ID                              : 5
Format                          : UTF-8
Codec ID                        : S_TEXT/UTF8
Codec ID/Info                    : UTF-8 Plain Text
Title                            : English
Language                        : English

Text #2
ID                              : 6
Format                          : UTF-8
Codec ID                        : S_TEXT/UTF8
Codec ID/Info                    : UTF-8 Plain Text
Title                            : Czech
Language                        : Czech

DOWNLOAD:
Upnito
kód:
http://www.upnito.sk/subor/e4740c231a4bafb5aced6280e87e8f19.html
http://www.upnito.sk/subor/70e7963934e67e7bddf767b5b015d64e.html
http://www.upnito.sk/subor/54d6a4342f13c692708117c436d748b6.html
http://www.upnito.sk/subor/333c9cdaf1d46a4a67feae95dc70a09c.html
http://www.upnito.sk/subor/89a21b92398cb3409eedf5865ef53dbf.html
http://www.upnito.sk/subor/d6e124f404e85748b312f728c83ea2e1.html
http://www.upnito.sk/subor/e76ff0ae6c920e2f91fa3b786a33c500.html
http://www.upnito.sk/subor/1214dab148879ab4b8abfdd6b1dc49de.html
http://www.upnito.sk/subor/38f50d686407ff48e9143c36b721de74.html
http://www.upnito.sk/subor/aa3c39d20ad6a647fb8a5ce8dc21457b.html
http://www.upnito.sk/subor/669c69e0cc747022945c1257fe751a13.html
http://www.upnito.sk/subor/6460c5f3d76e9f25a350729972b07b39.html

BEZ HESLA
Návrat hore Goto down
Zobrazit informácie o autorovi http://warnerfilm.forumn.org
 
Mizerové 2 / Bad Boys 2 (2003) HD
Zobraziť predchádzajúcu tému Zobraziť nasledujúcu tému Návrat hore 
Strana 1 z 1

Povolenie tohoto fóra:Nemôžete odpovedať na témy v tomto fóre.
Vsetko zadarmo :: .::Download filmy::. :: .::Filmy s ceskym a slovenskym dabingom::.-
Prejdi na: