Vsetko zadarmo

Vsetko zadarmo
 
DomovFAQHľadaťRegistráciaZoznam užívateľovUžívateľské skupinyPrihlásenie

Share | 
 

 Sindibád a Minotaur / Sinbad and the Minotaur (2011)

Zobraziť predchádzajúcu tému Zobraziť nasledujúcu tému Goto down 
AutorSpráva
aismen
Mega Uploader
Mega Uploader


Počet príspevkov : 703
Registration date : 16.04.2008

OdoslaťPredmet: Sindibád a Minotaur / Sinbad and the Minotaur (2011)   Pi október 14, 2011 3:34 pm

Sinbad and the Minotaur
Sindibád a Minotaur


Dobrodružný / Fantasy / Sci-Fi
Austrálie, 2011, 88 min


CSFD

Režie:Karl Zwicky
Hrají:Manu Bennett, Derek Boyer

Cesta za slávou a bohatstvím tentokrát Sindibáda přivádí na Minoův ostrov, kde je podle prastarých kronik ukryt poklad nedozírné ceny -- hlava sochy rhodského kolosu, vyrobená údajně z ryzího zlata.

INFO:
kód:
Format                          : AVI
Format/Info                      : Audio Video Interleave
File size                        : 934 MiB
Duration                        : 1h 28mn
Overall bit rate                : 1 475 Kbps
Writing application              : VirtualDubMod 1.5.10.2 (build 2540/release)
Writing library                  : VirtualDubMod build 2540/release

Video
ID                              : 0
Format                          : MPEG-4 Visual
Format profile                  : Advanced Simple@L5
Format settings, BVOP            : 1
Format settings, QPel            : No
Format settings, GMC            : No warppoints
Format settings, Matrix          : Custom
Codec ID                        : XVID
Codec ID/Hint                    : XviD
Duration                        : 1h 28mn
Bit rate                        : 1 338 Kbps
Width                            : 640 pixels
Height                          : 368 pixels
Display aspect ratio            : 16:9
Frame rate                      : 25.000 fps
Color space                      : YUV
Chroma subsampling              : 4:2:0
Bit depth                        : 8 bits
Scan type                        : Progressive
Compression mode                : Lossy
Bits/(Pixel*Frame)              : 0.227
Stream size                      : 847 MiB (91%)
Writing library                  : XviD 63

Audio
ID                              : 1
Format                          : MPEG Audio
Format version                  : Version 1
Format profile                  : Layer 3
Mode                            : Joint stereo
Mode extension                  : MS Stereo
Codec ID                        : 55
Codec ID/Hint                    : MP3
Duration                        : 1h 28mn
Bit rate mode                    : Constant
Bit rate                        : 128 Kbps
Channel(s)                      : 2 channels
Sampling rate                    : 48.0 KHz
Compression mode                : Lossy
Delay relative to video          : 24ms
Stream size                      : 81.0 MiB (9%)
Alignment                        : Aligned on interleaves
Interleave, duration            : 40 ms (1.00 video frame)
Interleave, preload duration    : 504 ms

DOWNLOAD:
hellshare
kód:
http://download.hellshare.sk/sinbad-and-the-minotaur-2011-avi/3790113

euroshare
kód:
http://euroshare.eu/file/1948192/sinbad_and_the_minotaur_2011.avi

BEZ HESLA
Návrat hore Goto down
Zobrazit informácie o autorovi http://warnerfilm.forumn.org
 
Sindibád a Minotaur / Sinbad and the Minotaur (2011)
Zobraziť predchádzajúcu tému Zobraziť nasledujúcu tému Návrat hore 
Strana 1 z 1

Povolenie tohoto fóra:Nemôžete odpovedať na témy v tomto fóre.
Vsetko zadarmo :: .::Download filmy::. :: .::Filmy s ceskym a slovenskym dabingom::.-
Prejdi na: