Vsetko zadarmo

Vsetko zadarmo
 
DomovFAQHľadaťRegistráciaZoznam užívateľovUžívateľské skupinyPrihlásenie

Share | 
 

  Prci, prci, prcičky /American Pie 1,2,3,4,5,6,7

Zobraziť predchádzajúcu tému Zobraziť nasledujúcu tému Goto down 
AutorSpráva
aismen
Mega Uploader
Mega Uploader


Počet príspevkov : 703
Registration date : 16.04.2008

OdoslaťPredmet: Prci, prci, prcičky /American Pie 1,2,3,4,5,6,7   St október 12, 2011 6:02 am

Prci, prci, prcičky
Pikantné pokušenie
American Pie
Prci, prci, prcičky


Komedie
USA, 1999, 92 min

CSFD

Režie:Paul Weitz, Chris Weitz
Hrají:Jason Biggs, Chris Klein, Thomas Ian Nicholas, Alyson Hannigan, Shannon Elizabeth, Tara Reid, Eddie Kaye Thomas, Seann William Scott, Eugene Levy, Natasha Lyonne, Mena Suvari, Jennifer Coolidge, Chris Owen, Eric Lively, Molly Cheek, Lawrence Pressman, Clyde Kusatsu, Christina Milian, Eden Riegel, Justin Isfeld, John Cho, Eli Marienthal, Mark Hoppus, Thomas DeLonge, James DeBello, Hilary Angelo, Casey Affleck, Chris Weitz, Alexandra Adi, Sasha Barrese, Clementine Ford, Travis Barker, Tara Subkoff

Čtyři mušketýři střední školy uzavřou na jednom z mejdanů smlouvu, v níž se zavážou, že ani jeden neprojde absolutoriem coby panic. Pochopitelně, že nikdo nechce být poslední, a tak se balí jako o závod. Vypadá to, že Jim bude mít štěstí. Velice se mu líbí exotická sexbomba Nadia, která od něho chce doučovat historii, a to ve cvičebním úboru. Že by výzva? Jim proto instaluje webcameru, takže všichni spolužáci mohou přes internet sledovat, co se bude dít v jeho pokoji. Oz si zase podle své povahy hledá citlivou duši. Ale co vlastně myslí tou "citlivou"? Asi to bude roztomilá Heather z pěveckého kroužku. Kevin to má jednoduché, je už dávno zadán. Ale jeho dívka Vicky pořád čeká na správné místo a správný čas. Zdá se, že jedině intelektuální Finch si nedělá starosti. Ale nechce náhodou podvádět?

INFO:
kód:
General
Format : AVI
Format/Info : Audio Video Interleave
File size : 700 MiB
Duration : 1h 31mn
Overall bit rate : 1 066 Kbps
Movie name : American Pie (1999) *CZ*
Director : TiDE
Subject : American Pie (1999) *CZ*
Law rating : Unrated
Writing application : Nandub v1.0rc2
Original source form/Name : Movie

Video
ID : 0
Format : MPEG-4 Visual
Format settings, BVOP : No
Format settings, QPel : No
Format settings, GMC : No warppoints
Format settings, Matrix : Default (MPEG)
Codec ID : XVID
Codec ID/Hint : XviD
Duration : 1h 31mn
Bit rate : 925 Kbps
Width : 576 pixels
Height : 304 pixels
Display aspect ratio : 1.895
Frame rate : 25.000 fps
Color space : YUV
Chroma subsampling : 4:2:0
Bit depth : 8 bits
Scan type : Progressive
Compression mode : Lossy
Bits/(Pixel*Frame) : 0.211
Stream size : 607 MiB (87%)

Audio
ID : 1
Format : MPEG Audio
Format version : Version 1
Format profile : Layer 3
Codec ID : 55
Codec ID/Hint : MP3
Duration : 1h 31mn
Bit rate mode : Variable
Bit rate : 128 Kbps
Channel(s) : 2 channels
Sampling rate : 48.0 KHz
Compression mode : Lossy
Stream size : 84.0 MiB (12%)
Alignment : Aligned on interleaves
Interleave, duration : 24 ms (0.60 video frame)
Interleave, preload duration : 486 ms
Writing library : LAME3.92a
Encoding settings : -m s -V 4 -q 2 -lowpass 17.5 --abr 128
Language : un

DOWNLOAD:
hellshare
kód:
http://download.hellshare.sk/prci-prci-prcicky-1-pikantne-pokusenie-avi/3773568

euroshare
kód:
http://euroshare.eu/file/1938892/prci__prci__prcicky_1_-_pikantne_pokusenie.avi

BEZ HESLA
Návrat hore Goto down
Zobrazit informácie o autorovi http://warnerfilm.forumn.org
aismen
Mega Uploader
Mega Uploader


Počet príspevkov : 703
Registration date : 16.04.2008

OdoslaťPredmet: Re: Prci, prci, prcičky /American Pie 1,2,3,4,5,6,7   St október 12, 2011 6:14 am

Prci, prci, prcičky 2: Pikantné pokušenie
Prci, prci, prcičky: Pikantné pokušenie
American Pie 2
Prci, prci, prcičky 2


Komedie / Romantický
USA, 2001, 108 min

CSFD

Režie:James B. Rogers
Hrají:Jason Biggs, Shannon Elizabeth, Alyson Hannigan, Chris Klein, Natasha Lyonne, Thomas Ian Nicholas, Tara Reid, Seann William Scott, Mena Suvari, Eddie Kaye Thomas, Eugene Levy, Chris Owen, Molly Cheek, Lisa Arturo, John Cho, Justin Isfeld, Eli Marienthal, Casey Affleck, George Wyner, Tsianina Joelson, Larry Drake, Ernie Lively, Kevin Cooney, Joanna Garcia-Swisher, Sarah Laine, Luke Edwards, Adam Brody, Kevin Kilner, Jennifer Coolidge, Chris Penn, Christina Cindrich, Adam Herz, James B. Rogers, Nora Zehetner, Joseph D. Reitman, April Florio, Lee Garlington, Bree Turner, Jesse Heiman

Nemotorný Jim, sympatický Kevin, sportovec Oz, intelektuál Finch a frajírek Stifler mají za sebou rok půstu na univerzitě a před sebou prázdniny. Pronajatý dům na pláži dává každému z nich naději na skvělý sex. Jejich touha po alespoň jedné bouřlivé noci je tak velká, že přijmou i brigádu, aby si vydělali nějaký ten dolar. Jenže správný sex dělají minimálně dva a v tom je i tentokrát potíž. O holky, které by měly pochopení pro jejich hobby, je nouze, a kluci to s nimi (i sami se sebou) mají zkrátka těžké. Dlouho a pečlivě připravovaný mejdan se i tentokrát poněkud vymkne režii. Nikdo však zkrátka nepřijde. Pokračování filmu AMERICAN PIE (1999).

INFO:
kód:
Format                          : AVI
Format/Info                      : Audio Video Interleave
File size                        : 689 MiB
Duration                        : 1h 39mn
Overall bit rate                : 971 Kbps
Writing application              : VirtualDubMod 1.5.10.1 (build 2366/release)
Writing library                  : VirtualDubMod build 2366/release

Video
ID                              : 0
Format                          : MPEG-4 Visual
Codec ID                        : DIV3
Codec ID/Hint                    : DivX 3 Low
Duration                        : 1h 39mn
Bit rate                        : 833 Kbps
Width                            : 576 pixels
Height                          : 304 pixels
Display aspect ratio            : 1.895
Frame rate                      : 25.000 fps
Color space                      : YUV
Chroma subsampling              : 4:2:0
Bit depth                        : 8 bits
Compression mode                : Lossy
Bits/(Pixel*Frame)              : 0.190
Stream size                      : 591 MiB (86%)

Audio
ID                              : 1
Format                          : MPEG Audio
Format version                  : Version 1
Format profile                  : Layer 3
Codec ID                        : 55
Codec ID/Hint                    : MP3
Duration                        : 1h 39mn
Bit rate mode                    : Constant
Bit rate                        : 128 Kbps
Channel(s)                      : 2 channels
Sampling rate                    : 44.1 KHz
Compression mode                : Lossy
Stream size                      : 90.8 MiB (13%)
Alignment                        : Split accross interleaves
Interleave, duration            : 40 ms (1.00 video frame)
Interleave, preload duration    : 500 ms
Writing library                  : LAME3.92
Encoding settings                : -m s -V 4 -q 5 -lowpass 13.8 -b 128

DOWNLOAD:
hellshare
kód:
http://download.hellshare.sk/prci-prci-prcicky-2-pikantne-pokusenie-avi/3773891

euroshare
kód:
http://euroshare.eu/file/1938953/prci__prci__prcicky_2_-_pikantne_pokusenie.avi

BEZ HESLA
Návrat hore Goto down
Zobrazit informácie o autorovi http://warnerfilm.forumn.org
aismen
Mega Uploader
Mega Uploader


Počet príspevkov : 703
Registration date : 16.04.2008

OdoslaťPredmet: Re: Prci, prci, prcičky /American Pie 1,2,3,4,5,6,7   St október 12, 2011 6:17 am

Prci, prci, prcičky 3
Prci, prci, prcičky 3: Svadba
American Wedding
Prci, prci, prcičky 3: Svatba


Komedie
USA / Německo, 2003, 99 min

CSFD

Režie:Jesse Dylan
Hudba:Christophe Beck
Hrají:Jason Biggs, Thomas Ian Nicholas, Eddie Kaye Thomas, Seann William Scott, Alyson Hannigan, January Jones, Eugene Levy, Deborah Rush, Fred Willard, Nikki Schieler Ziering, Lawrence Pressman, Alexis Thorpe, John Cho, Justin Isfeld, Jennifer Coolidge, Molly Cheek, Reynaldo Gallegos, Eric Allan Kramer, Rob Nagle

Bouřliváci, známí divákům celého světa z filmů Prci, prci, prcičky (American Pie) a Prci, prci, prcičky 2 (American Pie 2), se znovu setkávají ve třetím volném pokračování této divácky úspěšné série. Studentská léta jsou již jen ve vzpomínkách, z dětí se stali dospělí, avšak jsou připraveni zařádit si při další velké události. Jim (Jason Biggs) a Michelle (Alyson Hannigan) se budou brát - jak jinak, než ve spěchu. Jimova nemocná babička by ještě ráda viděla jeho svatební obřad, a tak se mladí rozhodnou vše zařídit za neuvěřitelné dva týdny. Stifler plánuje poslední loučení se svobodou (na řadu přijdou striptérky v netypických rolích). Finch (Eddie Kaye Thomas) je rozhodně pro všechny svatební rituály, ale v žádném případě nechce dopřát Stiflerovi "dvorní dámu", kterou nemá být nikdo jiný než Michellina sexuálně přitažlivá sestra Cadence (January Jones). Zatímco všichni propadají šílenství, Jimův otec (Eugene Levy) je v pohodě, jako vždy rozdává rady a připravuje se na nejlepší den svého života.

INFO:
kód:
Format                          : AVI
Format/Info                      : Audio Video Interleave
File size                        : 702 MiB
Duration                        : 1h 39mn
Overall bit rate                : 990 Kbps
Writing application              : VirtualDubMod 1.5.4.1 (build 2178/release)
Writing library                  : VirtualDubMod build 2178/release

Video
ID                              : 0
Format                          : MPEG-4 Visual
Format profile                  : Simple@L3
Format settings, BVOP            : 2
Format settings, QPel            : No
Format settings, GMC            : No warppoints
Format settings, Matrix          : Default (H.263)
Codec ID                        : XVID
Codec ID/Hint                    : XviD
Duration                        : 1h 39mn
Bit rate                        : 860 Kbps
Width                            : 624 pixels
Height                          : 256 pixels
Display aspect ratio            : 2.40:1
Frame rate                      : 25.000 fps
Color space                      : YUV
Chroma subsampling              : 4:2:0
Bit depth                        : 8 bits
Scan type                        : Progressive
Compression mode                : Lossy
Bits/(Pixel*Frame)              : 0.215
Stream size                      : 610 MiB (87%)
Writing library                  : XviD 0.0.09 (UTC 2003-03-25)

Audio
ID                              : 1
Format                          : MPEG Audio
Format version                  : Version 1
Format profile                  : Layer 3
Mode                            : Joint stereo
Mode extension                  : MS Stereo
Codec ID                        : 55
Codec ID/Hint                    : MP3
Duration                        : 1h 39mn
Bit rate mode                    : Variable
Bit rate                        : 117 Kbps
Nominal bit rate                : 128 Kbps
Channel(s)                      : 2 channels
Sampling rate                    : 48.0 KHz
Compression mode                : Lossy
Stream size                      : 82.8 MiB (12%)
Alignment                        : Aligned on interleaves
Interleave, duration            : 24 ms (0.60 video frame)
Interleave, preload duration    : 157 ms
Writing library                  : LAME3.90.
Encoding settings                : -m j -V 0 -q 5 -lowpass 15.3 --abr 128

DOWNLOAD:
hellshare
kód:
http://download.hellshare.sk/prci-prci-prcicky-3-svatba-avi/3774183

euroshare
kód:
http://euroshare.eu/file/1938993/prci__prci__prcicky_3_-_svatba.avi

BEZ HESLA
Návrat hore Goto down
Zobrazit informácie o autorovi http://warnerfilm.forumn.org
aismen
Mega Uploader
Mega Uploader


Počet príspevkov : 703
Registration date : 16.04.2008

OdoslaťPredmet: Re: Prci, prci, prcičky /American Pie 1,2,3,4,5,6,7   St október 12, 2011 6:20 am

Prci, prci, prcičky v tábore (video film)
American Pie Presents Band Camp
Prci, prci, prcičky: Na táboře


Komedie
USA, 2005, 87 min (Director's cut: 95 min)

CSFD

Režie:Steve Rash
Hudba:Robert Folk
Hrají:Arielle Kebbel, Tad Hilgenbrink, Eugene Levy, Chris Owen, Crystle Lightning, Jason Earles, Matt Barr, Timothy Stack, Ginger Lynn Allen, Lily Mariye, Omar Benson Miller, Bryan Irzyk, Micah Alberti

Stiflerův mladší bratr Matt musí proti své vůli strávit léto v nechvalně proslulém hudebním táboře. A průšvihy se skrytými kamerami a žhavými praktikantkami na sebe nenechají čekat. Ale pak se zamiluje do Elyse, kamarádky ze skupiny a jeho úsilí potlačit své choutky nezůstává bez následků. Korunu všemu nasazuje Jimův otec (Eugene Levy) jako svérázný vedoucí, který se pokouší pomoci Stiflerovu bráškovi vše vrátit zpět do správných kolejí. Přidejte se ke kapele a bavte se naprosto dokonalými scénami a neskutečnými vtípky v pokračování filmu PRCI, PRCI, PRCIČKY, které musíte vidět!

INFO:
kód:
Format                          : AVI
Format/Info                      : Audio Video Interleave
File size                        : 700 MiB
Duration                        : 1h 27mn
Overall bit rate                : 1 121 Kbps
Writing application              : Nandub v1.0rc2
Writing library                  : Nandub build 1852/release

Video
ID                              : 0
Format                          : MPEG-4 Visual
Format profile                  : Advanced Simple@L5
Format settings, BVOP            : 2
Format settings, QPel            : No
Format settings, GMC            : No warppoints
Format settings, Matrix          : Default (H.263)
Muxing mode                      : Packed bitstream
Codec ID                        : XVID
Codec ID/Hint                    : XviD
Duration                        : 1h 27mn
Bit rate                        : 996 Kbps
Width                            : 640 pixels
Height                          : 352 pixels
Display aspect ratio            : 16:9
Frame rate                      : 25.000 fps
Color space                      : YUV
Chroma subsampling              : 4:2:0
Bit depth                        : 8 bits
Scan type                        : Progressive
Compression mode                : Lossy
Bits/(Pixel*Frame)              : 0.177
Stream size                      : 622 MiB (89%)
Writing library                  : XviD 1.1.0 (UTC 2005-11-22)

Audio
ID                              : 1
Format                          : MPEG Audio
Format version                  : Version 1
Format profile                  : Layer 3
Mode                            : Joint stereo
Mode extension                  : MS Stereo
Codec ID                        : 55
Codec ID/Hint                    : MP3
Duration                        : 1h 27mn
Bit rate mode                    : Variable
Bit rate                        : 112 Kbps
Channel(s)                      : 2 channels
Sampling rate                    : 48.0 KHz
Compression mode                : Lossy
Stream size                      : 69.9 MiB (10%)
Alignment                        : Aligned on interleaves
Interleave, duration            : 24 ms (0.60 video frame)
Interleave, preload duration    : 483 ms
Writing library                  : LAME3.92
Encoding settings                : -m j -V 4 -q 2 -lowpass 17.5 --abr 112

DOWNLOAD:
hellshare
kód:
http://download.hellshare.sk/prci-prci-prcicky-4-na-tabore-avi/3774413

euroshare
kód:
http://euroshare.eu/file/1939002/prci__prci__prcicky_4_-_na_tabore.avi

BEZ HESLA
Návrat hore Goto down
Zobrazit informácie o autorovi http://warnerfilm.forumn.org
aismen
Mega Uploader
Mega Uploader


Počet príspevkov : 703
Registration date : 16.04.2008

OdoslaťPredmet: Re: Prci, prci, prcičky /American Pie 1,2,3,4,5,6,7   St október 12, 2011 6:23 am

Prci, prci, prcičky: Nahá míľa (video film)
American Pie Presents The Naked Mile
Prci, prci, prcičky: Nahá míle


Komedie
USA, 2006, 97 min

CSFD

Režie:Joe Nussbaum
Hrají:Candace Kroslak, Steve Talley, John White, Eugene Levy, Christopher McDonald, Jake Siegel, Ross Thomas, Jessy Schram, Jordan Prentice, Melanie Merkosky, Devon Bostick

V tomto dalším pokračování se tentokrát podíváme na Adama Stiflera, bratrance Matta a Steva, mladíka který je nula, stejně jako jeho příbuzenstvo. Tlak jeho vrstevníků ho donutí přemýšlet. Vyprosí si, aby mohl pomáhat na koleji nesoucí název “Nahá Míle”, což je běh přes školní dvůr úplně nahý…

INFO:
kód:
Format                          : AVI
Format/Info                      : Audio Video Interleave
File size                        : 701 MiB
Duration                        : 1h 37mn
Overall bit rate                : 1 006 Kbps
Writing application              : VirtualDubMod 1.5.4.1 (build 2178/release)
Writing library                  : VirtualDubMod build 2178/release

Video
ID                              : 0
Format                          : MPEG-4 Visual
Format profile                  : Advanced Simple@L5
Format settings, BVOP            : 1
Format settings, QPel            : No
Format settings, GMC            : No warppoints
Format settings, Matrix          : Custom
Codec ID                        : XVID
Codec ID/Hint                    : XviD
Duration                        : 1h 37mn
Bit rate                        : 818 Kbps
Width                            : 720 pixels
Height                          : 384 pixels
Display aspect ratio            : 1.875
Frame rate                      : 25.000 fps
Color space                      : YUV
Chroma subsampling              : 4:2:0
Bit depth                        : 8 bits
Scan type                        : Progressive
Compression mode                : Lossy
Bits/(Pixel*Frame)              : 0.118
Stream size                      : 570 MiB (81%)
Writing library                  : XviD 1.3.0.dev55

Audio
ID                              : 1
Format                          : MPEG Audio
Format version                  : Version 1
Format profile                  : Layer 3
Mode                            : Joint stereo
Mode extension                  : MS Stereo
Codec ID                        : 55
Codec ID/Hint                    : MP3
Duration                        : 1h 37mn
Bit rate mode                    : Variable
Bit rate                        : 174 Kbps
Nominal bit rate                : 192 Kbps
Channel(s)                      : 2 channels
Sampling rate                    : 48.0 KHz
Compression mode                : Lossy
Stream size                      : 122 MiB (17%)
Alignment                        : Aligned on interleaves
Interleave, duration            : 24 ms (0.60 video frame)
Interleave, preload duration    : 105 ms
Writing library                  : LAME3.98r
Encoding settings                : -m j -V 4 -q 2 -lowpass 18.6 --abr 192
Language                        : Czech

DOWNLOAD:
hellshare
kód:
http://download.hellshare.sk/prci-prci-prcicky-5-naha-mile-avi/3774663

euroshare
kód:
http://euroshare.eu/file/1939008/prci__prci__prcicky_5_-_naha_mile.avi

BEZ HESLA
Návrat hore Goto down
Zobrazit informácie o autorovi http://warnerfilm.forumn.org
aismen
Mega Uploader
Mega Uploader


Počet príspevkov : 703
Registration date : 16.04.2008

OdoslaťPredmet: Re: Prci, prci, prcičky /American Pie 1,2,3,4,5,6,7   St október 12, 2011 6:24 am

Prci, prci, prcičky: Kozy, bobry a iné zvery (video film)
American Pie Presents Beta House
Prci, prci, prcičky: Spolek Beta


Komedie
USA, 2007, 89 min

CSFD

Režie:Andrew Waller
Hrají:John White, Steve Talley, Christopher McDonald, Eugene Levy, Meghan Heffern, Jake Siegel, Jonathan Keltz, Bradford Anderson, Italia Ricci, Moshana Halbert, Sarah Power, Robbie Amell, Marina Stone, Vasanth Saranga, Chris Violette, Jordan Prentice, Erica Cox

Naše 'trojka' správňáku, Erik, Ryan a Cooze, se rozhodli následovat svého legendárního idola, Dwighta Stiflera, a studovat na univerzitě plné 'žhavých' kočiček. A hlavně, stát se součástí spolku Beta House. Proto musí splnit 50 naročných úkolů. Ne všechno je idealní. Jejich bezstarostní život plný řádění na party a ranních mokrých triček je ohrožen. Spolek Šprtů chystá velkou výzvu! Řecké olympiády...

INFO:
kód:
Format                          : AVI
Format/Info                      : Audio Video Interleave
File size                        : 703 MiB
Duration                        : 1h 26mn
Overall bit rate                : 1 134 Kbps
Writing application              : VirtualDubMod 1.5.10.2 (build 2540/release)
Writing library                  : VirtualDubMod build 2540/release

Video
ID                              : 0
Format                          : MPEG-4 Visual
Format profile                  : Advanced Simple@L5
Format settings, BVOP            : 2
Format settings, QPel            : No
Format settings, GMC            : No warppoints
Format settings, Matrix          : Default (H.263)
Muxing mode                      : Packed bitstream
Codec ID                        : XVID
Codec ID/Hint                    : XviD
Duration                        : 1h 26mn
Bit rate                        : 1 000 Kbps
Width                            : 640 pixels
Height                          : 352 pixels
Display aspect ratio            : 16:9
Frame rate                      : 25.000 fps
Color space                      : YUV
Chroma subsampling              : 4:2:0
Bit depth                        : 8 bits
Scan type                        : Progressive
Compression mode                : Lossy
Bits/(Pixel*Frame)              : 0.178
Stream size                      : 619 MiB (88%)
Writing library                  : XviD 1.2.0.dev47 (UTC 2006-11-01)

Audio
ID                              : 1
Format                          : MPEG Audio
Format version                  : Version 1
Format profile                  : Layer 3
Mode                            : Joint stereo
Codec ID                        : 55
Codec ID/Hint                    : MP3
Duration                        : 1h 24mn
Bit rate mode                    : Constant
Bit rate                        : 128 Kbps
Channel(s)                      : 2 channels
Sampling rate                    : 48.0 KHz
Compression mode                : Lossy
Stream size                      : 77.5 MiB (11%)
Alignment                        : Aligned on interleaves
Interleave, duration            : 41 ms (1.02 video frame)
Interleave, preload duration    : 504 ms

DOWNLOAD:
hellshare
kód:
http://download.hellshare.sk/prci-prci-prcicky-6-spolek-beta-avi/3774908

euroshare
kód:
http://euroshare.eu/file/1939012/prci__prci__prcicky_6_-_spolek_beta.avi

BEZ HESLA
Návrat hore Goto down
Zobrazit informácie o autorovi http://warnerfilm.forumn.org
aismen
Mega Uploader
Mega Uploader


Počet príspevkov : 703
Registration date : 16.04.2008

OdoslaťPredmet: Re: Prci, prci, prcičky /American Pie 1,2,3,4,5,6,7   St október 12, 2011 6:27 am

Prci, prci, prcičky: Kniha lásky (video film)
American Pie Presents: The Book of Love
Prci, prci, prcičky: Kniha lásky


Komedie
USA, 2009, 93 min

CSFD

Režie:John Putch
Hrají:Eugene Levy, Bug Hall, Kevin M. Horton, Beth Behrs, Melanie Papalia, Jennifer Holland, Cindy Busby, Naomi Hewer, Louisa Lytton, Jessica Drake, Rosanna Arquette, Karin Konoval, Curtis Armstrong, Holly Eglington, Jim Wynorski, C. Thomas Howell, Tim Matheson, Steve Railsback, Bret Michaels

Zbrusu nový a čerstvý kousek ze série Prci, prci, prcičky je tu! Čeká vás sexy dovádění, žhavé dívky a nespoutaná zábava, s jakou jste se dosud nesetkali! Rob, Nathan a Lube jsou kamarádi ze střední školy odhodlaní užít si s dívkami svých snů. Ve školní knihovně náhodně objevují legendární knihu s radami zaručujícími sexuální úspěch, kterou napsali bývalí studenti, ale několik chybějících stran způsobuje, že si každý z nich užije zábavu, kterou opravdu nečekal!

INFO:
kód:
General
Format : AVI
Format/Info : Audio Video Interleave
File size : 763 MiB
Duration : 1h 33mn
Overall bit rate : 1 142 Kbps
Writing application : MEncoder Sherpya-SVN-r29355-4.5.0
Writing library : MPlayer

Video
ID : 0
Format : MPEG-4 Visual
Format profile : Simple@L3
Format settings, BVOP : No
Format settings, QPel : No
Format settings, GMC : No warppoints
Format settings, Matrix : Default (H.263)
Codec ID : XVID
Codec ID/Hint : XviD
Duration : 1h 33mn
Bit rate : 1 005 Kbps
Width : 704 pixels
Height : 384 pixels
Display aspect ratio : 16:9
Frame rate : 25.000 fps
Color space : YUV
Chroma subsampling : 4:2:0
Bit depth : 8 bits
Scan type : Progressive
Compression mode : Lossy
Bits/(Pixel*Frame) : 0.149
Stream size : 672 MiB (88%)
Writing library : XviD 1.2.1 (UTC 2008-12-04)

Audio
ID : 1
Format : MPEG Audio
Format version : Version 1
Format profile : Layer 3
Mode : Joint stereo
Mode extension : MS Stereo
Codec ID : 55
Codec ID/Hint : MP3
Duration : 1h 33mn
Bit rate mode : Variable
Bit rate : 124 Kbps
Channel(s) : 2 channels
Sampling rate : 44.1 KHz
Compression mode : Lossy
Stream size : 82.8 MiB (11%)
Alignment : Aligned on interleaves
Interleave, duration : 26 ms (0.65 video frame)
Interleave, preload duration : 134 ms
Writing library : LAME3.98

DOWNLOAD:
hellshare
kód:
http://download.hellshare.sk/prci-prci-prcicky-7-kniha-lasky-avi/3773324

euroshare
kód:
http://euroshare.eu/file/1938861/prci_prci_prcicky_7_-_kniha_lasky.avi

BEZ HESLA
Návrat hore Goto down
Zobrazit informácie o autorovi http://warnerfilm.forumn.org
Sponsored content




OdoslaťPredmet: Re: Prci, prci, prcičky /American Pie 1,2,3,4,5,6,7   Today at 10:09 am

Návrat hore Goto down
 
Prci, prci, prcičky /American Pie 1,2,3,4,5,6,7
Zobraziť predchádzajúcu tému Zobraziť nasledujúcu tému Návrat hore 
Strana 1 z 1

Povolenie tohoto fóra:Nemôžete odpovedať na témy v tomto fóre.
Vsetko zadarmo :: .::Download filmy::. :: .::Filmy s ceskym a slovenskym dabingom::.-
Prejdi na: