Vsetko zadarmo

Vsetko zadarmo
 
DomovFAQHľadaťRegistráciaZoznam užívateľovUžívateľské skupinyPrihlásenie

Share | 
 

 Rec 2 / [Rec] 2 (2009)

Zobraziť predchádzajúcu tému Zobraziť nasledujúcu tému Goto down 
AutorSpráva
aismen
Mega Uploader
Mega Uploader


Počet príspevkov : 703
Registration date : 16.04.2008

OdoslaťPredmet: Rec 2 / [Rec] 2 (2009)   St október 12, 2011 5:49 am

[Rec] 2
Rec 2
Rec 2


Horor / Thriller
Španělsko,2009, 85 min

CSFD

Režie:Paco Plaza, Jaume Balagueró
Hrají:Manuela Velasco, Ferran Terraza, Pablo Rosso, Àlex Batllori, Javier Botet, Jonathan Mellor, Claudia Font, Ariel Casas, Nico Baixas, Andrea Ros, Juli Fàbregas, Óscar Zafra, Pau Poch, Ana Isabel Velásquez, Alejandro Casaseca, David Vert, Raul Moya Juarez, Pere Vall, Jorge-Yamam Serrano

Snímek REC se stal nečekaným překvapením roku 2007 nejen v domácím Španělsku, ale také na řadě festivalů a náleží mezi klíčové tituly renesance evropského hororu. Kritici mu přisoudili stejný význam na proměně žánru, jaký před lety přinesl nízkorozpočtový snímek Záhada Blair Witch (1999). S ním REC spojovaly užití ruční kamery a důraz na maximální věrohodnost dialogů i chování aktérů. Netrvalo dlouho a objevil se nejen americký remake Karanténa (2008), ale také módní vlna laciných hororů točených na malé digitální kamery, která například díky absurdní marketingové masáži vynesla k výšinám i průměrný amatérský příspěvek Paranormal Activity (2007). Po dvou letech se tvůrčí duo za španělským zázrakem vrátilo ke svému vlastnímu konceptu. Druhý díl přímo navazuje na konec předchozího – do karanténou izolovaného bytového domu plného krvežíznivých bestií tentokrát vstupuje speciální jednotka s úkolem vše vyčistit a posbírat vzorky pro výzkum. Tato prostinká premisa otevírá strhující frenetickou jízdu vypjaté hrůzy, excesivního násilí a adrenalinové akce. REC 2 představuje jeden z nejpovedenějších sequelů v oblasti hororu, který plně zachovává vše, co fungovalo v předchozím filmu a rozehraný prostor využívá k invenčním formálním hrátkám, které umocňují intenzivní atmosféru díla. První a druhý REC si nejen díky jistým podobnostem v příbězích vysloužily nadšené přirovnání ke dvojici Vetřelec (1979) a Vetřelci (1986).

INFO:
kód:
General
Format : AVI
Format/Info : Audio Video Interleave
File size : 699 MiB
Duration : 1h 20mn
Overall bit rate : 1 209 Kbps
Writing application : VirtualDubMod 1.5.10.2 (build 2540/release)
Writing library : VirtualDubMod build 2540/release

Video
ID : 0
Format : MPEG-4 Visual
Format profile : Simple@L3
Format settings, BVOP : 2
Format settings, QPel : No
Format settings, GMC : No warppoints
Format settings, Matrix : Default (MPEG)
Muxing mode : Packed bitstream
Codec ID : XVID
Codec ID/Hint : XviD
Duration : 1h 20mn
Bit rate : 1 071 Kbps
Width : 624 pixels
Height : 336 pixels
Display aspect ratio : 1.857
Frame rate : 25.000 fps
Color space : YUV
Chroma subsampling : 4:2:0
Bit depth : 8 bits
Scan type : Progressive
Compression mode : Lossy
Bits/(Pixel*Frame) : 0.204
Stream size : 619 MiB (89%)
Writing library : XviD 1.0.3 (UTC 2004-12-20)

Audio
ID : 1
Format : MPEG Audio
Format version : Version 1
Format profile : Layer 3
Mode : Joint stereo
Mode extension : MS Stereo
Codec ID : 55
Codec ID/Hint : MP3
Duration : 1h 20mn
Bit rate mode : Constant
Bit rate : 128 Kbps
Channel(s) : 2 channels
Sampling rate : 48.0 KHz
Compression mode : Lossy
Delay relative to video : 24ms
Stream size : 74.0 MiB (11%)
Alignment : Aligned on interleaves
Interleave, duration : 40 ms (1.00 video frame)
Interleave, preload duration : 504 ms

DOWNLOAD:
hellshare
kód:
http://download.hellshare.sk/rec-2-cz-avi/3772667

euroshare
kód:
http://euroshare.eu/file/1938826/rec_2_cz.avi

BEZ HESLA
Návrat hore Goto down
Zobrazit informácie o autorovi http://warnerfilm.forumn.org
 
Rec 2 / [Rec] 2 (2009)
Zobraziť predchádzajúcu tému Zobraziť nasledujúcu tému Návrat hore 
Strana 1 z 1

Povolenie tohoto fóra:Nemôžete odpovedať na témy v tomto fóre.
Vsetko zadarmo :: .::Download filmy::. :: .::Filmy s ceskym a slovenskym dabingom::.-
Prejdi na: